  0
SECTION
  2
HEADER
  9
$ACADVER
  1
AC1015
  9
$ACADMAINTVER
 70
    20
  9
$DWGCODEPAGE
  3
ANSI_1252
  9
$INSBASE
 10
0.0
 20
0.0
 30
0.0
  9
$EXTMIN
 10
126.5448076864607
 20
48.01927982666467
 30
0.0
  9
$EXTMAX
 10
382.7972374314604
 20
183.3376224552014
 30
0.0
  9
$LIMMIN
 10
0.0
 20
0.0
  9
$LIMMAX
 10
420.0
 20
297.0
  9
$ORTHOMODE
 70
     1
  9
$REGENMODE
 70
     1
  9
$FILLMODE
 70
     1
  9
$QTEXTMODE
 70
     0
  9
$MIRRTEXT
 70
     1
  9
$LTSCALE
 40
1.0
  9
$ATTMODE
 70
     1
  9
$TEXTSIZE
 40
2.5
  9
$TRACEWID
 40
1.0
  9
$TEXTSTYLE
  7
Standard
  9
$CLAYER
  8
BEMAßUNG
  9
$CELTYPE
  6
ByLayer
  9
$CECOLOR
 62
   256
  9
$CELTSCALE
 40
1.0
  9
$DISPSILH
 70
     0
  9
$DIMSCALE
 40
1.0
  9
$DIMASZ
 40
2.5
  9
$DIMEXO
 40
0.625
  9
$DIMDLI
 40
3.75
  9
$DIMRND
 40
0.0
  9
$DIMDLE
 40
0.0
  9
$DIMEXE
 40
1.25
  9
$DIMTP
 40
0.0
  9
$DIMTM
 40
0.0
  9
$DIMTXT
 40
2.5
  9
$DIMCEN
 40
2.5
  9
$DIMTSZ
 40
0.0
  9
$DIMTOL
 70
     0
  9
$DIMLIM
 70
     0
  9
$DIMTIH
 70
     0
  9
$DIMTOH
 70
     0
  9
$DIMSE1
 70
     0
  9
$DIMSE2
 70
     0
  9
$DIMTAD
 70
     1
  9
$DIMZIN
 70
     8
  9
$DIMBLK
  1

  9
$DIMASO
 70
     1
  9
$DIMSHO
 70
     1
  9
$DIMPOST
  1

  9
$DIMAPOST
  1

  9
$DIMALT
 70
     0
  9
$DIMALTD
 70
     3
  9
$DIMALTF
 40
0.03937007874016
  9
$DIMLFAC
 40
1.0
  9
$DIMTOFL
 70
     1
  9
$DIMTVP
 40
0.0
  9
$DIMTIX
 70
     0
  9
$DIMSOXD
 70
     0
  9
$DIMSAH
 70
     0
  9
$DIMBLK1
  1

  9
$DIMBLK2
  1

  9
$DIMSTYLE
  2
ISO-25
  9
$DIMCLRD
 70
     0
  9
$DIMCLRE
 70
     0
  9
$DIMCLRT
 70
     0
  9
$DIMTFAC
 40
1.0
  9
$DIMGAP
 40
0.625
  9
$DIMJUST
 70
     0
  9
$DIMSD1
 70
     0
  9
$DIMSD2
 70
     0
  9
$DIMTOLJ
 70
     0
  9
$DIMTZIN
 70
     8
  9
$DIMALTZ
 70
     0
  9
$DIMALTTZ
 70
     0
  9
$DIMUPT
 70
     0
  9
$DIMDEC
 70
     2
  9
$DIMTDEC
 70
     2
  9
$DIMALTU
 70
     2
  9
$DIMALTTD
 70
     3
  9
$DIMTXSTY
  7
Standard
  9
$DIMAUNIT
 70
     0
  9
$DIMADEC
 70
     0
  9
$DIMALTRND
 40
0.0
  9
$DIMAZIN
 70
     0
  9
$DIMDSEP
 70
    44
  9
$DIMATFIT
 70
     3
  9
$DIMFRAC
 70
     0
  9
$DIMLDRBLK
  1

  9
$DIMLUNIT
 70
     2
  9
$DIMLWD
 70
    -2
  9
$DIMLWE
 70
    -2
  9
$DIMTMOVE
 70
     0
  9
$LUNITS
 70
     2
  9
$LUPREC
 70
     4
  9
$SKETCHINC
 40
1.0
  9
$FILLETRAD
 40
4.0
  9
$AUNITS
 70
     0
  9
$AUPREC
 70
     0
  9
$MENU
  1
.
  9
$ELEVATION
 40
0.0
  9
$PELEVATION
 40
0.0
  9
$THICKNESS
 40
0.0
  9
$LIMCHECK
 70
     0
  9
$CHAMFERA
 40
10.0
  9
$CHAMFERB
 40
10.0
  9
$CHAMFERC
 40
20.0
  9
$CHAMFERD
 40
0.0
  9
$SKPOLY
 70
     0
  9
$TDCREATE
 40
2453024.765013993
  9
$TDUCREATE
 40
2453024.681680660
  9
$TDUPDATE
 40
2454656.356677153
  9
$TDUUPDATE
 40
2454656.273343820
  9
$TDINDWG
 40
0.2297037153
  9
$TDUSRTIMER
 40
0.2297037153
  9
$USRTIMER
 70
     1
  9
$ANGBASE
 50
0.0
  9
$ANGDIR
 70
     0
  9
$PDMODE
 70
     0
  9
$PDSIZE
 40
0.0
  9
$PLINEWID
 40
0.0
  9
$SPLFRAME
 70
     0
  9
$SPLINETYPE
 70
     6
  9
$SPLINESEGS
 70
     8
  9
$HANDSEED
  5
9B1
  9
$SURFTAB1
 70
     6
  9
$SURFTAB2
 70
     6
  9
$SURFTYPE
 70
     6
  9
$SURFU
 70
     6
  9
$SURFV
 70
     6
  9
$UCSBASE
  2

  9
$UCSNAME
  2

  9
$UCSORG
 10
0.0
 20
0.0
 30
0.0
  9
$UCSXDIR
 10
1.0
 20
0.0
 30
0.0
  9
$UCSYDIR
 10
0.0
 20
1.0
 30
0.0
  9
$UCSORTHOREF
  2

  9
$UCSORTHOVIEW
 70
     0
  9
$UCSORGTOP
 10
0.0
 20
0.0
 30
0.0
  9
$UCSORGBOTTOM
 10
0.0
 20
0.0
 30
0.0
  9
$UCSORGLEFT
 10
0.0
 20
0.0
 30
0.0
  9
$UCSORGRIGHT
 10
0.0
 20
0.0
 30
0.0
  9
$UCSORGFRONT
 10
0.0
 20
0.0
 30
0.0
  9
$UCSORGBACK
 10
0.0
 20
0.0
 30
0.0
  9
$PUCSBASE
  2

  9
$PUCSNAME
  2

  9
$PUCSORG
 10
0.0
 20
0.0
 30
0.0
  9
$PUCSXDIR
 10
1.0
 20
0.0
 30
0.0
  9
$PUCSYDIR
 10
0.0
 20
1.0
 30
0.0
  9
$PUCSORTHOREF
  2

  9
$PUCSORTHOVIEW
 70
     0
  9
$PUCSORGTOP
 10
0.0
 20
0.0
 30
0.0
  9
$PUCSORGBOTTOM
 10
0.0
 20
0.0
 30
0.0
  9
$PUCSORGLEFT
 10
0.0
 20
0.0
 30
0.0
  9
$PUCSORGRIGHT
 10
0.0
 20
0.0
 30
0.0
  9
$PUCSORGFRONT
 10
0.0
 20
0.0
 30
0.0
  9
$PUCSORGBACK
 10
0.0
 20
0.0
 30
0.0
  9
$USERI1
 70
     0
  9
$USERI2
 70
     0
  9
$USERI3
 70
     0
  9
$USERI4
 70
     0
  9
$USERI5
 70
     0
  9
$USERR1
 40
0.0
  9
$USERR2
 40
0.0
  9
$USERR3
 40
0.0
  9
$USERR4
 40
0.0
  9
$USERR5
 40
0.0
  9
$WORLDVIEW
 70
     1
  9
$SHADEDGE
 70
     3
  9
$SHADEDIF
 70
    70
  9
$TILEMODE
 70
     0
  9
$MAXACTVP
 70
    64
  9
$PINSBASE
 10
0.0
 20
0.0
 30
0.0
  9
$PLIMCHECK
 70
     0
  9
$PEXTMIN
 10
0.4161606749147495
 20
-0.8795805827699041
 30
0.0
  9
$PEXTMAX
 10
281.2863390375124
 20
185.1981606579089
 30
0.0
  9
$PLIMMIN
 10
-5.027069091796875
 20
-5.027083396911621
  9
$PLIMMAX
 10
291.89892578125
 20
204.9462442398071
  9
$UNITMODE
 70
     0
  9
$VISRETAIN
 70
     1
  9
$PLINEGEN
 70
     0
  9
$PSLTSCALE
 70
     1
  9
$TREEDEPTH
 70
  3020
  9
$CMLSTYLE
  2
Standard
  9
$CMLJUST
 70
     0
  9
$CMLSCALE
 40
20.0
  9
$PROXYGRAPHICS
 70
     1
  9
$MEASUREMENT
 70
     1
  9
$CELWEIGHT
370
    -1
  9
$ENDCAPS
280
     0
  9
$JOINSTYLE
280
     0
  9
$LWDISPLAY
290
     0
  9
$INSUNITS
 70
     4
  9
$HYPERLINKBASE
  1

  9
$STYLESHEET
  1

  9
$XEDIT
290
     1
  9
$CEPSNTYPE
380
     0
  9
$PSTYLEMODE
290
     1
  9
$FINGERPRINTGUID
  2
{4DCC1F1B-4A6A-11D8-8A63-000475FD2474}
  9
$VERSIONGUID
  2
{D387F53C-CE81-489F-B71E-CBF69F7FC5A5}
  9
$EXTNAMES
290
     1
  9
$PSVPSCALE
 40
0.0
  9
$OLESTARTUP
290
     0
  0
ENDSEC
  0
SECTION
  2
CLASSES
  0
CLASS
  1
ACDBDICTIONARYWDFLT
  2
AcDbDictionaryWithDefault
  3
ObjectDBX Classes
 90
        0
280
     0
281
     0
  0
CLASS
  1
ACDBPLACEHOLDER
  2
AcDbPlaceHolder
  3
ObjectDBX Classes
 90
        0
280
     0
281
     0
  0
CLASS
  1
LAYOUT
  2
AcDbLayout
  3
ObjectDBX Classes
 90
        0
280
     0
281
     0
  0
CLASS
  1
DICTIONARYVAR
  2
AcDbDictionaryVar
  3
ObjectDBX Classes
 90
        0
280
     0
281
     0
  0
CLASS
  1
ACME_DOCUMENT
  2
AcMeDbDoc
  3
AcMeServices
 90
        0
280
     0
281
     0
  0
CLASS
  1
AMGSETTINGSOBJ
  2
AmgSettingsObj
  3
"AcadM|Product Description: AutoCAD Mechanical 2000|Company: Autodesk"
 90
        0
280
     0
281
     0
  0
CLASS
  1
ACMESCOPE
  2
AcMeScope
  3
AcMeServices
 90
        0
280
     0
281
     0
  0
CLASS
  1
ACMECOMMANDHISTORY
  2
AcMeCommandHistory
  3
AcMeServices
 90
        0
280
     0
281
     0
  0
CLASS
  1
ACIMSYSVARMAN
  2
AcImSysVarManager
  3
AcMeServices
 90
        0
280
     0
281
     0
  0
CLASS
  1
ACIMREALSYSVAR
  2
AcImRealSysVar
  3
AcMeServices
 90
        0
280
     0
281
     0
  0
CLASS
  1
ACIMINTSYSVAR
  2
AcImIntSysVar
  3
AcMeServices
 90
        0
280
     0
281
     0
  0
CLASS
  1
ACMEDRAWINGMAN
  2
AcMeDrawingMan
  3
AcMeServices
 90
        0
280
     0
281
     0
  0
CLASS
  1
ACMEVIEW
  2
AcMeView
  3
AcMeServices
 90
        0
280
     0
281
     0
  0
CLASS
  1
ACDBENTITYCACHE
  2
AcMeEntityCache
  3
AcMeServices
 90
        0
280
     0
281
     0
  0
CLASS
  1
GSMANAGER
  2
AcMeGSManager
  3
AcMeServices
 90
        0
280
     0
281
     0
  0
CLASS
  1
AMDTINTERNALREACTOR
  2
AmdtInternalReactor
  3
AcMeServices
 90
        0
280
     0
281
     0
  0
CLASS
  1
ACMESTATEMGR
  2
AcMeStateMgr
  3
AcMeServices
 90
        0
280
     0
281
     0
  0
CLASS
  1
ACGREFMASTER
  2
AcGrefMaster
  3
AcAttribServices
 90
        0
280
     0
281
     0
  0
CLASS
  1
AM_DRAWING_MGR
  2
AcDmDwgMgr
  3
AcMechDwgViewMgmt
 90
        0
280
     0
281
     0
  0
CLASS
  1
AM_DWG_DOCUMENT
  2
AcDmDwgDocument
  3
AcMechDwgViewMgmt
 90
        0
280
     0
281
     0
  0
CLASS
  1
AM_DWG_SHEET
  2
AcDmSheet
  3
AcMechDwgViewMgmt
 90
        0
280
     0
281
     0
  0
CLASS
  1
AM_VIEWDIMPARMAP
  2
AcDmViewDimParMap
  3
AcMechDwgViewMgmt
 90
        0
280
     0
281
     0
  0
CLASS
  1
AM_DWGMGR_NAME
  2
AcDmDwgMgrName
  3
AcMechDwgViewMgmt
 90
        0
280
     0
281
     0
  0
CLASS
  1
ACME_DATABASE
  2
AcMeDbDatabase
  3
AcMeServices
 90
        0
280
     0
281
     0
  0
CLASS
  1
ACRFINSADJUSTERMGR
  2
AcRfInsAdjusterMgr
  3
AcMeServices
 90
        0
280
     0
281
     0
  0
CLASS
  1
ACGREFACADMASTER
  2
AcGrefacadMaster
  3
AcGrefServices
 90
        0
280
     0
281
     0
  0
CLASS
  1
AMDTMENUSTATEMGR
  2
AmdtMenuStateMgr
  3
McadcomServices
 90
        0
280
     0
281
     0
  0
CLASS
  1
AMDTMCOMMENUSTATE
  2
AmdtMcomMenuState
  3
McadcomServices
 90
        0
280
     0
281
     0
  0
CLASS
  1
AMIMASTER
  2
AmiMaster
  3
AmiServices
 90
        0
280
     0
281
     0
  0
CLASS
  1
ASAPP
  2
AcAsAppObject
  3
AutoSurfServices
 90
        0
280
     0
281
     0
  0
CLASS
  1
IM_STATIC_MAN
  2
AcImStaticVarManager
  3
AcMeServices
 90
        0
280
     0
281
     0
  0
CLASS
  1
ACIMSTRSYSVAR
  2
AcImStrSysVar
  3
AcMeServices
 90
        0
280
     0
281
     0
  0
CLASS
  1
ACIMDBLSTATICVAR
  2
AcImDblStaticVar
  3
AcMeServices
 90
    32768
280
     0
281
     0
  0
CLASS
  1
ACIMSTRSTATICVAR
  2
AcImStrStaticVar
  3
AcMeServices
 90
    32768
280
     0
281
     0
  0
CLASS
  1
ACIMINTSTATICVAR
  2
AcImIntStaticVar
  3
AcMeServices
 90
    32768
280
     0
281
     0
  0
CLASS
  1
ACASGREFMASTER
  2
AcAsGrefMaster
  3
AutoSurfResolverServices
 90
        0
280
     0
281
     0
  0
CLASS
  1
ACADGREFMODULE
  2
AcAdGrefModule
  3
AdGrefServices
 90
        0
280
     0
281
     0
  0
CLASS
  1
AMDTMAPISURFMOUDULE
  2
AmdtMApiSurfModule
  3
MApiSurfServices
 90
        0
280
     0
281
     0
  0
CLASS
  1
MAPIAMMOUDLE
  2
MApiAmModule
  3
MApiAmServices
 90
        0
280
     0
281
     0
  0
CLASS
  1
AMDTADMENUSTATE
  2
AmdtAdMenuState
  3
DesignerServices
 90
        0
280
     0
281
     0
  0
CLASS
  1
ADAPPL
  2
AcAdAppl
  3
DesignerServices
 90
        0
280
     0
281
     0
  0
CLASS
  1
DEPMGR
  2
AcAdDepMgr
  3
DesignerServices
 90
        0
280
     0
281
     0
  0
CLASS
  1
PARAMMGR
  2
AcAdParamMgr
  3
DesignerServices
 90
        0
280
     0
281
     0
  0
CLASS
  1
PARAMSCOPE
  2
AcAdParamScope
  3
DesignerServices
 90
        0
280
     0
281
     0
  0
CLASS
  1
NAMEDAPPL
  2
AcAdNamedAppl
  3
DesignerServices
 90
        0
280
     0
281
     0
  0
CLASS
  1
AMDTDMMENUSTATE
  2
AmdtDmMenuState
  3
AcMechDwgViewMgmt
 90
        0
280
     0
281
     0
  0
CLASS
  1
MAPIADMODULE
  2
MApiAdModule
  3
MApiAdServices
 90
        0
280
     0
281
     0
  0
CLASS
  1
AMDTAMMENUSTATE
  2
AmdtAmMenuState
  3
DesignerAssemblies
 90
        0
280
     0
281
     0
  0
CLASS
  1
ACAMPROJECT
  2
AcAmProject
  3
DesignerAssemblies
 90
        0
280
     0
281
     0
  0
CLASS
  1
ACAMGRCOMPDEF
  2
AcAmGrCompDef
  3
DesignerAssemblies
 90
        0
280
     0
281
     0
  0
CLASS
  1
ACCMCONTEXT
  2
AcCmContext
  3
DesignerAssemblies
 90
        0
280
     0
281
     0
  0
CLASS
  1
ACAMCOMPDEF
  2
AcAmCompDef
  3
DesignerAssemblies
 90
        0
280
     0
281
     0
  0
CLASS
  1
ACAMCOMPDEFMGR
  2
AcAmCompDefMgr
  3
DesignerAssemblies
 90
        0
280
     0
281
     0
  0
CLASS
  1
AMCONTEXTMGR
  2
AcAmContextMgr
  3
DesignerAssemblies
 90
        0
280
     0
281
     0
  0
CLASS
  1
ACAMCONTEXTMODELER
  2
AcAmContextModeler
  3
DesignerAssemblies
 90
        0
280
     0
281
     0
  0
CLASS
  1
ACMDATADICTIONARY
  2
AcmDataDictionary
  3
"AcmSymBB|Product Description: AutoCAD Mechanical 2004 DX|Company: Autodesk"
 90
        0
280
     0
281
     0
  0
CLASS
  1
CATALOGSTATE
  2
AcAmCatalogState
  3
DesignerAssemblies
 90
        0
280
     0
281
     0
  0
CLASS
  1
ACAMGRCOMPDEFSET
  2
AcAmGrCompDefSet
  3
DesignerAssemblies
 90
        0
280
     0
281
     0
  0
CLASS
  1
AMDTBROWSERDBTAB
  2
AmdtBrowserDbTab
  3
McadcomServices
 90
        0
280
     0
281
     0
  0
CLASS
  1
CBROWSERAPPOBJECT
  2
CBrowserAppObject
  3
McadcomServices
 90
        0
280
     0
281
     0
  0
CLASS
  1
DM_PLACEHOLDER
  2
AcDmSelsetPlaceholder
  3
AcMechDwgViewMgmt
 90
        0
280
     0
281
     0
  0
CLASS
  1
ACMSTANDARDDIN
  2
AcmStandardDIN
  3
"Amdt_StdImp|Product Description: AutoCAD Mechanical 2004 DX|Company: Autodesk"
 90
        0
280
     0
281
     0
  0
CLASS
  1
AMGOBJPROPCFG
  2
AmgObjPropCfg
  3
"AmgLay|Product Description: AutoCAD Mechanical 2000|Company: Autodesk"
 90
        1
280
     0
281
     0
  0
CLASS
  1
AMDTEDGESTANDARDDIN
  2
AmdtEdgeStdDIN
  3
"Amdt_StdImp|Product Description: AutoCAD Mechanical 2004 DX|Company: Autodesk"
 90
        0
280
     0
281
     0
  0
CLASS
  1
ACMSURFSTANDARDDIN
  2
AcmSurfTextStdDIN
  3
"Amdt_StdImp|Product Description: AutoCAD Mechanical 2004 DX|Company: Autodesk"
 90
        0
280
     0
281
     0
  0
CLASS
  1
ACMFCFSTANDARDDIN
  2
AcmFCFStdDIN
  3
"Amdt_StdImp|Product Description: AutoCAD Mechanical 2004 DX|Company: Autodesk"
 90
        0
280
     0
281
     0
  0
CLASS
  1
ACMWELDSTANDARDDIN
  2
AcmWeldingStdDIN
  3
"Amdt_StdImp|Product Description: AutoCAD Mechanical 2004 DX|Company: Autodesk"
 90
        0
280
     0
281
     0
  0
CLASS
  1
ACMIDSTANDARDDIN
  2
AcmIdStdDIN
  3
"Amdt_StdImp|Product Description: AutoCAD Mechanical 2004 DX|Company: Autodesk"
 90
        0
280
     0
281
     0
  0
CLASS
  1
ACMDATUMSTANDARDDIN
  2
AcmDatumStdDIN
  3
"Amdt_StdImp|Product Description: AutoCAD Mechanical 2004 DX|Company: Autodesk"
 90
        0
280
     0
281
     0
  0
CLASS
  1
ACMBOMSTANDARDDIN
  2
AcmBOMStdDIN
  3
"Amdt_StdImp|Product Description: AutoCAD Mechanical 2004 DX|Company: Autodesk"
 90
        0
280
     0
281
     0
  0
CLASS
  1
ACMDETAILSTANDARDDIN
  2
AmdtDetailSymStdDIN
  3
"Amdt_StdImp|Product Description: AutoCAD Mechanical 2004 DX|Company: Autodesk"
 90
        0
280
     0
281
     0
  0
CLASS
  1
ACMSECTIONSTANDARDDIN
  2
AmdtSectionSymStdDIN
  3
"Amdt_StdImp|Product Description: AutoCAD Mechanical 2004 DX|Company: Autodesk"
 90
        0
280
     0
281
     0
  0
CLASS
  1
ACMCENTERLINESTANDARDDIN
  2
AmdtCenterLineStdDIN
  3
"Amdt_StdImp|Product Description: AutoCAD Mechanical 2004 DX|Company: Autodesk"
 90
        0
280
     0
281
     0
  0
CLASS
  1
ACMTHREADLINESTANDARDDIN
  2
AmdtThreadLineStdDIN
  3
"Amdt_StdImp|Product Description: AutoCAD Mechanical 2004 DX|Company: Autodesk"
 90
        0
280
     0
281
     0
  0
CLASS
  1
ACMNOTESTANDARDDIN
  2
AmdtNoteStdDIN
  3
"Amdt_StdImp|Product Description: AutoCAD Mechanical 2004 DX|Company: Autodesk"
 90
        0
280
     0
281
     0
  0
CLASS
  1
AMDTNOTETEMPLATEDB
  2
AmdtNoteTemplateDB
  3
AMDT_STDIMP_MODULE_NAME
 90
        0
280
     0
281
     0
  0
CLASS
  1
ACAMGLAYSTD
  2
AcAmgLayStd
  3
"AcAmgLayStd|Product Description: AutoCAD Mechanical 2000|Company: Autodesk"
 90
        0
280
     0
281
     0
  0
CLASS
  1
ACAMGDIMSTD
  2
AcAmgDimStd
  3
"AcAmgDimStd|Product Description: AutoCAD Mechanical 2000|Company: Autodesk"
 90
        0
280
     0
281
     0
  0
CLASS
  1
ACAMGHOLECHARTSTDDIN
  2
AcAmgHoleChartStdDIN
  3
ACMSYMBB_MODULE_NAME
 90
        0
280
     0
281
     0
  0
CLASS
  1
ACAMGTITLESTD
  2
AcAmgTitleStd
  3
"TITLEAPP"
 90
        0
280
     0
281
     0
  0
CLASS
  1
ACAMGFILTERDAT
  2
AcAmgFilterDat
  3
"AcadM|Product Description: AutoCAD Mechanical 2000|Company: Autodesk"
 90
    32768
280
     0
281
     0
  0
CLASS
  1
LAYER_INDEX
  2
AcDbLayerIndex
  3
ObjectDBX Classes
 90
        0
280
     0
281
     0
  0
CLASS
  1
IDBUFFER
  2
AcDbIdBuffer
  3
ObjectDBX Classes
 90
        0
280
     0
281
     0
  0
ENDSEC
  0
SECTION
  2
TABLES
  0
TABLE
  2
VPORT
  5
8
330
0
100
AcDbSymbolTable
 70
     1
  0
VPORT
  5
8A7
330
8
100
AcDbSymbolTableRecord
100
AcDbViewportTableRecord
  2
*Active
 70
     0
 10
0.0
 20
0.0
 11
1.0
 21
1.0
 12
246.9039567390574
 22
159.9237120107869
 13
0.0
 23
0.0
 14
10.0
 24
10.0
 15
10.0
 25
10.0
 16
0.0
 26
0.0
 36
1.0
 17
0.0
 27
0.0
 37
0.0
 40
64.83099135697644
 41
1.550943396226415
 42
50.0
 43
0.0
 44
0.0
 50
0.0
 51
0.0
 71
     0
 72
   100
 73
     1
 74
     3
 75
     0
 76
     0
 77
     0
 78
     0
281
     0
 65
     1
110
0.0
120
0.0
130
0.0
111
1.0
121
0.0
131
0.0
112
0.0
122
1.0
132
0.0
 79
     0
146
0.0
  0
ENDTAB
  0
TABLE
  2
LTYPE
  5
5
330
0
100
AcDbSymbolTable
 70
    23
  0
LTYPE
  5
14
330
5
100
AcDbSymbolTableRecord
100
AcDbLinetypeTableRecord
  2
ByBlock
 70
     0
  3

 72
    65
 73
     0
 40
0.0
  0
LTYPE
  5
15
330
5
100
AcDbSymbolTableRecord
100
AcDbLinetypeTableRecord
  2
ByLayer
 70
     0
  3

 72
    65
 73
     0
 40
0.0
  0
LTYPE
  5
16
330
5
100
AcDbSymbolTableRecord
100
AcDbLinetypeTableRecord
  2
Continuous
 70
     0
  3
Solid line
 72
    65
 73
     0
 40
0.0
  0
LTYPE
  5
15F
330
5
100
AcDbSymbolTableRecord
100
AcDbLinetypeTableRecord
  2
ACAD_ISO10W100
 70
     0
  3
ISO Strichpunktlinie __ . __ . __ . __ . __ . _
 72
    65
 73
     4
 40
18.5
 49
12.0
 74
     0
 49
-3.0
 74
     0
 49
0.5
 74
     0
 49
-3.0
 74
     0
  0
LTYPE
  5
54E
330
5
100
AcDbSymbolTableRecord
100
AcDbLinetypeTableRecord
  2
ACAD_ISO02W100
 70
     0
  3
ISO Strichlinie __ __ __ __ __ __ __ __ __ __ _
 72
    65
 73
     2
 40
15.0
 49
12.0
 74
     0
 49
-3.0
 74
     0
  0
LTYPE
  5
796
330
5
100
AcDbSymbolTableRecord
100
AcDbLinetypeTableRecord
  2
HIDDEN
 70
     0
  3
Verdeckt
 72
    65
 73
     2
 40
9.525
 49
6.349999999999999
 74
     0
 49
-3.174999999999999
 74
     0
  0
LTYPE
  5
797
330
5
100
AcDbSymbolTableRecord
100
AcDbLinetypeTableRecord
  2
PHANTOM2
 70
     0
  3
Phantom (.5x) ___ _ _ ___ _ _ ___ _ _ ___ _ _
 72
    65
 73
     6
 40
31.75
 49
15.875
 74
     0
 49
-3.174999999999999
 74
     0
 49
3.174999999999999
 74
     0
 49
-3.174999999999999
 74
     0
 49
3.174999999999999
 74
     0
 49
-3.174999999999999
 74
     0
  0
LTYPE
  5
798
330
5
100
AcDbSymbolTableRecord
100
AcDbLinetypeTableRecord
  2
CENTER
 70
     0
  3
Mitte ____ _ ____ _ ____ _ ____ _ ____ _ ____
 72
    65
 73
     4
 40
50.8
 49
31.75
 74
     0
 49
-6.349999999999999
 74
     0
 49
6.349999999999999
 74
     0
 49
-6.349999999999999
 74
     0
  0
LTYPE
  5
7FA
330
5
100
AcDbSymbolTableRecord
100
AcDbLinetypeTableRecord
  2
ASULTYPE
 70
     0
  3
Ausgezogene Linie
 72
    65
 73
     2
 40
3.0
 49
2.5
 74
     0
 49
0.5
 74
     0
  0
LTYPE
  5
7FB
330
5
100
AcDbSymbolTableRecord
100
AcDbLinetypeTableRecord
  2
ASVLTYPE
 70
     0
  3
__ __ __ __ __ __ __ __ __ __ __ __ __ __ __ __ __ __ __ __ __
 72
    65
 73
     2
 40
0.75
 49
0.5
 74
     0
 49
-0.25
 74
     0
  0
LTYPE
  5
841
330
5
100
AcDbSymbolTableRecord
100
AcDbLinetypeTableRecord
  2
AM_ISO02W050
 70
     0
  3
__ __ __ __ __ __ __ __ __ __ __ __ __ __ __
 72
    65
 73
     2
 40
7.5
 49
6.0
 74
     0
 49
-1.5
 74
     0
  0
LTYPE
  5
842
330
5
100
AcDbSymbolTableRecord
100
AcDbLinetypeTableRecord
  2
AM_ISO08W050
 70
     0
  3
____ . ____ . ____ . ____ . ____ . ____ . ____
 72
    65
 73
     4
 40
18.0
 49
12.0
 74
     0
 49
-1.5
 74
     0
 49
3.0
 74
     0
 49
-1.5
 74
     0
  0
LTYPE
  5
843
330
5
100
AcDbSymbolTableRecord
100
AcDbLinetypeTableRecord
  2
AM_ISO09W050
 70
     0
  3
_____ . . _____ . . _____ . . ____ .. ____
 72
    65
 73
     6
 40
22.5
 49
12.0
 74
     0
 49
-1.5
 74
     0
 49
3.0
 74
     0
 49
-1.5
 74
     0
 49
3.0
 74
     0
 49
-1.5
 74
     0
  0
LTYPE
  5
844
330
5
100
AcDbSymbolTableRecord
100
AcDbLinetypeTableRecord
  2
Amconstr
 70
     0
  3
_______________________
 72
    65
 73
     2
 40
9999.0
 49
9999.0
 74
     0
 49
0.0
 74
     0
  0
LTYPE
  5
845
330
5
100
AcDbSymbolTableRecord
100
AcDbLinetypeTableRecord
  2
AM_ISO08W050x2
 70
     0
  3
__ . __ . __ . __ . __ . __
 72
    65
 73
     4
 40
9.0
 49
6.0
 74
     0
 49
-0.75
 74
     0
 49
1.5
 74
     0
 49
-0.75
 74
     0
  0
LTYPE
  5
846
330
5
100
AcDbSymbolTableRecord
100
AcDbLinetypeTableRecord
  2
AM_ISO02W050x2
 70
     0
  3
 _ _ _ _ _ _ _ _ _ _ _ _
 72
    65
 73
     2
 40
3.75
 49
3.0
 74
     0
 49
-0.75
 74
     0
  0
LTYPE
  5
847
330
5
100
AcDbSymbolTableRecord
100
AcDbLinetypeTableRecord
  2
Amzigzag
 70
     0
  3
/\/-/\/-/\/-/\/-/\/-/\/
 72
    65
 73
     2
 40
11.0001
 49
0.0001
 74
     4
 75
   135
340
54D
 46
0.04
 50
0.0
 44
0.0
 45
0.0
 49
-11.0
 74
     0
  0
LTYPE
  5
848
330
5
100
AcDbSymbolTableRecord
100
AcDbLinetypeTableRecord
  2
AM_DIN_F_W050
 70
     0
  3
__ __ __ __ __ __ __ __ __ __ __ __ __ __ __
 72
    65
 73
     2
 40
6.25
 49
4.75
 74
     0
 49
-1.5
 74
     0
  0
LTYPE
  5
849
330
5
100
AcDbSymbolTableRecord
100
AcDbLinetypeTableRecord
  2
AM_DIN_G_W050
 70
     0
  3
____ . ____ . ____ . ____ . ____ . ____ . ____
 72
    65
 73
     4
 40
13.75
 49
9.75
 74
     0
 49
-1.5
 74
     0
 49
1.0
 74
     0
 49
-1.5
 74
     0
  0
LTYPE
  5
84A
330
5
100
AcDbSymbolTableRecord
100
AcDbLinetypeTableRecord
  2
AM_DIN_K_W050
 70
     0
  3
_____ . . _____ . . _____ . . ____ .. ____
 72
    65
 73
     6
 40
16.25
 49
9.75
 74
     0
 49
-1.5
 74
     0
 49
1.0
 74
     0
 49
-1.5
 74
     0
 49
1.0
 74
     0
 49
-1.5
 74
     0
  0
LTYPE
  5
84B
330
5
100
AcDbSymbolTableRecord
100
AcDbLinetypeTableRecord
  2
AM_DIN_G_W050x2
 70
     0
  3
__ . __ . __ . __ . __ . __
 72
    65
 73
     4
 40
6.875
 49
4.75
 74
     0
 49
-0.875
 74
     0
 49
0.375
 74
     0
 49
-0.875
 74
     0
  0
LTYPE
  5
84C
330
5
100
AcDbSymbolTableRecord
100
AcDbLinetypeTableRecord
  2
AM_DIN_F_W050x2
 70
     0
  3
 _ _ _ _ _ _ _ _ _ _ _ _
 72
    65
 73
     2
 40
3.125
 49
2.25
 74
     0
 49
-0.875
 74
     0
  0
LTYPE
  5
85B
330
5
100
AcDbSymbolTableRecord
100
AcDbLinetypeTableRecord
  2
ACDINWELD
 70
     0
  3
_ _ _ _ _
 72
    65
 73
     2
 40
2.0
 49
2.0
 74
     0
 49
-1.0
 74
     0
  0
LTYPE
  5
85C
330
5
100
AcDbSymbolTableRecord
100
AcDbLinetypeTableRecord
  2
ACDINTGB
 70
     0
  3
__ . . __ . .
 72
    65
 73
     6
 40
9.0
 49
4.0
 74
     0
 49
-1.0
 74
     0
 49
1.0
 74
     0
 49
-1.0
 74
     0
 49
1.0
 74
     0
 49
-1.0
 74
     0
  0
LTYPE
  5
85D
330
5
100
AcDbSymbolTableRecord
100
AcDbLinetypeTableRecord
  2
ACDINTGL
 70
     0
  3
_ _ _ _ _
 72
    65
 73
     2
 40
3.0
 49
2.0
 74
     0
 49
-1.0
 74
     0
  0
ENDTAB
  0
TABLE
  2
LAYER
  5
2
330
0
100
AcDbSymbolTable
 70
     7
  0
LAYER
  5
10
330
2
100
AcDbSymbolTableRecord
100
AcDbLayerTableRecord
  2
0
 70
     0
 62
     7
  6
Continuous
370
    -3
390
F
  0
LAYER
  5
160
330
2
100
AcDbSymbolTableRecord
100
AcDbLayerTableRecord
  2
ACHSEN
 70
     0
 62
     1
  6
ACAD_ISO10W100
370
    -3
390
F
  0
LAYER
  5
161
330
2
100
AcDbSymbolTableRecord
100
AcDbLayerTableRecord
  2
DEFPOINTS
 70
     0
 62
     7
  6
Continuous
290
     0
370
    -3
390
F
  0
LAYER
  5
162
330
2
100
AcDbSymbolTableRecord
100
AcDbLayerTableRecord
  2
BEMAßUNG
 70
     0
 62
     5
  6
Continuous
370
    -3
390
F
  0
LAYER
  5
163
330
2
100
AcDbSymbolTableRecord
100
AcDbLayerTableRecord
  2
Linien
 70
     0
 62
     7
  6
Continuous
370
    -3
390
F
  0
LAYER
  5
44B
330
2
100
AcDbSymbolTableRecord
100
AcDbLayerTableRecord
  2
Hilfslinien
 70
     0
 62
    72
  6
Continuous
370
    -3
390
F
  0
LAYER
  5
54F
330
2
100
AcDbSymbolTableRecord
100
AcDbLayerTableRecord
  2
Unsichtbare
 70
     0
 62
     7
  6
ACAD_ISO02W100
370
    -3
390
F
  0
ENDTAB
  0
TABLE
  2
STYLE
  5
3
330
0
100
AcDbSymbolTable
 70
     4
  0
STYLE
  5
11
330
3
100
AcDbSymbolTableRecord
100
AcDbTextStyleTableRecord
  2
Standard
 70
     0
 40
0.0
 41
1.0
 50
0.0
 71
     0
 42
2.5
  3
txt
  4

  0
STYLE
  5
54D
330
3
100
AcDbSymbolTableRecord
100
AcDbTextStyleTableRecord
  2

 70
     1
 40
0.0
 41
1.0
 50
0.0
 71
     0
 42
2.5
  3
ltypeshp.shx
  4

  0
STYLE
  5
84D
330
3
100
AcDbSymbolTableRecord
100
AcDbTextStyleTableRecord
  2
ACDINTS
 70
     0
 40
1.0
 41
1.0
 50
0.0
 71
     0
 42
2.5
  3
isocp.shx
  4

  0
STYLE
  5
85A
330
3
100
AcDbSymbolTableRecord
100
AcDbTextStyleTableRecord
  2
ACDINGDT
 70
     0
 40
0.0
 41
1.0
 50
0.0
 71
     0
 42
2.5
  3
amgdt.shx
  4

  0
ENDTAB
  0
TABLE
  2
VIEW
  5
6
330
0
100
AcDbSymbolTable
 70
     0
  0
ENDTAB
  0
TABLE
  2
UCS
  5
7
330
0
100
AcDbSymbolTable
 70
     0
  0
ENDTAB
  0
TABLE
  2
APPID
  5
9
330
0
100
AcDbSymbolTable
 70
    16
  0
APPID
  5
12
330
9
100
AcDbSymbolTableRecord
100
AcDbRegAppTableRecord
  2
ACAD
 70
     0
  0
APPID
  5
773
330
9
100
AcDbSymbolTableRecord
100
AcDbRegAppTableRecord
  2
GENIUS_GENDIM_13
 70
     0
  0
APPID
  5
774
330
9
100
AcDbSymbolTableRecord
100
AcDbRegAppTableRecord
  2
GENIUS_GENDTOL_13
 70
     0
  0
APPID
  5
775
330
9
100
AcDbSymbolTableRecord
100
AcDbRegAppTableRecord
  2
GENIUS_GE3DTOL_13
 70
     0
  0
APPID
  5
778
330
9
100
AcDbSymbolTableRecord
100
AcDbRegAppTableRecord
  2
MCAD_NO_VIS
 70
     0
  0
APPID
  5
779
330
9
100
AcDbSymbolTableRecord
100
AcDbRegAppTableRecord
  2
ACAD_TEMP_GRAPHIC
 70
     0
  0
APPID
  5
7AD
330
9
100
AcDbSymbolTableRecord
100
AcDbRegAppTableRecord
  2
AD_DRAW
 70
     0
  0
APPID
  5
7B0
330
9
100
AcDbSymbolTableRecord
100
AcDbRegAppTableRecord
  2
ACATTRIBSERVICES
 70
     0
  0
APPID
  5
7FC
330
9
100
AcDbSymbolTableRecord
100
AcDbRegAppTableRecord
  2
ASURF_PCURVE_APPNAME
 70
     0
  0
APPID
  5
801
330
9
100
AcDbSymbolTableRecord
100
AcDbRegAppTableRecord
  2
AMG_3D2D_5.0
 70
     0
  0
APPID
  5
830
330
9
100
AcDbSymbolTableRecord
100
AcDbRegAppTableRecord
  2
DESIGNERASSEMBLIES
 70
     0
  0
APPID
  5
836
330
9
100
AcDbSymbolTableRecord
100
AcDbRegAppTableRecord
  2
ACADM_DIM_EDIT
 70
     0
  0
APPID
  5
837
330
9
100
AcDbSymbolTableRecord
100
AcDbRegAppTableRecord
  2
AMDT_DM_ADJ
 70
     0
  0
APPID
  5
872
330
9
100
AcDbSymbolTableRecord
100
AcDbRegAppTableRecord
  2
GENIUS_GENSCREG_15
 70
     0
  0
APPID
  5
873
330
9
100
AcDbSymbolTableRecord
100
AcDbRegAppTableRecord
  2
GENIUS_GENOBJ-N-SDF_13
 70
     0
  0
APPID
  5
874
330
9
100
AcDbSymbolTableRecord
100
AcDbRegAppTableRecord
  2
GENIUS_GENODEF_13
 70
     0
  0
ENDTAB
  0
TABLE
  2
DIMSTYLE
  5
A
330
0
100
AcDbSymbolTable
 70
     9
100
AcDbDimStyleTable
 71
     1
340
27
  0
DIMSTYLE
105
27
102
{ACAD_REACTORS
330
451
330
45F
330
46D
330
47B
330
489
330
497
330
4B7
330
4F4
330
504
330
511
330
55D
330
56F
330
578
330
59A
330
5BC
330
631
330
63E
330
64B
330
658
330
667
330
674
330
681
330
694
330
6A1
102
}
330
A
100
AcDbSymbolTableRecord
100
AcDbDimStyleTableRecord
  2
ISO-25
 70
     0
 41
2.5
 42
0.625
 43
3.75
 44
1.25
 73
     0
 74
     0
 77
     1
 78
     8
140
2.5
141
2.5
143
0.03937007874016
147
0.625
171
     3
172
     1
271
     2
272
     2
274
     3
278
    44
283
     0
284
     8
340
11
  0
DIMSTYLE
105
164
330
A
100
AcDbSymbolTableRecord
100
AcDbDimStyleTableRecord
  2
STANDARD
 70
     0
340
11
  0
DIMSTYLE
105
865
330
A
100
AcDbSymbolTableRecord
100
AcDbDimStyleTableRecord
  2
AM_DIN
 70
     0
  4
"
 41
2.5
 42
1.0
 43
10.0
 44
1.0
 47
0.1
 48
0.1
 73
     0
 74
     0
 77
     1
 78
     8
 79
     2
140
3.5
141
0.0
143
0.0393701
146
0.71
147
1.5
172
     1
176
   256
177
   256
178
     2
271
     2
272
     3
274
     4
283
     0
284
     8
340
11
371
    -1
372
    -1
  0
DIMSTYLE
105
866
330
A
100
AcDbSymbolTableRecord
100
AcDbDimStyleTableRecord
  2
AM_DIN$3
 70
     0
  4
"
 41
2.5
 42
1.0
 43
10.0
 44
1.0
 47
0.1
 48
0.1
 73
     0
 77
     1
 78
     8
 79
     2
140
3.5
141
0.0
143
0.0393701
146
0.71
147
1.5
176
   256
177
   256
178
     2
271
     2
272
     3
274
     4
283
     0
284
     8
288
     1
289
     0
340
11
371
    -1
372
    -1
  0
DIMSTYLE
105
867
330
A
100
AcDbSymbolTableRecord
100
AcDbDimStyleTableRecord
  2
AM_DIN$4
 70
     0
  4
"
 41
2.5
 42
1.0
 43
10.0
 44
1.0
 47
0.1
 48
0.1
 73
     0
 77
     1
 78
     8
 79
     2
140
3.5
141
0.0
143
0.0393701
146
0.71
147
1.5
176
   256
177
   256
178
     2
271
     2
272
     3
274
     4
283
     0
284
     8
288
     1
289
     0
340
11
371
    -1
372
    -1
  0
DIMSTYLE
105
868
330
A
100
AcDbSymbolTableRecord
100
AcDbDimStyleTableRecord
  2
AM_DIN$6
 70
     0
  4
"
 41
2.5
 42
1.0
 43
10.0
 44
1.0
 47
0.1
 48
0.1
 73
     0
 74
     0
 78
     8
 79
     2
140
3.5
141
0.0
143
0.0393701
146
0.71
147
1.5
172
     1
176
   256
177
   256
178
     2
271
     2
272
     3
274
     4
283
     0
284
     8
340
11
371
    -1
372
    -1
  0
DIMSTYLE
105
869
330
A
100
AcDbSymbolTableRecord
100
AcDbDimStyleTableRecord
  2
AM_DIN$7
 70
     0
  4
"
 41
2.5
 42
1.0
 43
10.0
 44
1.0
 47
0.1
 48
0.1
 73
     0
 74
     0
 77
     1
 78
     8
 79
     2
140
5.0
141
0.0
143
0.0393701
146
0.71
147
1.5
172
     1
176
   256
177
   256
178
     2
271
     2
272
     3
274
     4
283
     0
284
     8
340
11
371
    -1
372
    -1
  0
DIMSTYLE
105
86A
330
A
100
AcDbSymbolTableRecord
100
AcDbDimStyleTableRecord
  2
AM_DIN$SF
 70
     0
  4
"
 41
2.5
 42
1.0
 43
10.0
 44
1.0
 47
0.1
 48
0.1
 73
     0
 74
     0
 75
     1
 76
     1
 77
     1
 78
     8
 79
     2
140
3.5
141
0.0
143
0.0393701
146
0.71
147
1.5
172
     1
176
   256
177
   256
178
     2
271
     2
272
     3
274
     4
283
     0
284
     8
340
11
371
    -1
372
    -1
  0
DIMSTYLE
105
86F
330
A
100
AcDbSymbolTableRecord
100
AcDbDimStyleTableRecord
  2
AM_DIN$SH
 70
     0
  4
"
 41
2.5
 42
1.0
 43
10.0
 44
1.0
 47
0.1
 48
0.1
 73
     0
 74
     0
 75
     1
 76
     1
 77
     1
 78
     8
 79
     2
140
3.5
141
0.0
143
0.0393701
144
2.0
146
0.71
147
1.5
172
     1
173
     1
176
   256
177
   256
178
     2
271
     2
272
     3
274
     4
283
     0
284
     8
340
11
343
86B
371
    -1
372
    -1
  0
ENDTAB
  0
TABLE
  2
BLOCK_RECORD
  5
1
330
0
100
AcDbSymbolTable
 70
    27
  0
BLOCK_RECORD
  5
1F
102
{ACAD_XDICTIONARY
360
87D
102
}
330
1
100
AcDbSymbolTableRecord
100
AcDbBlockTableRecord
  2
*Model_Space
340
22
  0
BLOCK_RECORD
  5
1B
330
1
100
AcDbSymbolTableRecord
100
AcDbBlockTableRecord
  2
*Paper_Space
340
1E
  0
BLOCK_RECORD
  5
23
330
1
100
AcDbSymbolTableRecord
100
AcDbBlockTableRecord
  2
*Paper_Space0
340
26
  0
BLOCK_RECORD
  5
452
330
1
100
AcDbSymbolTableRecord
100
AcDbBlockTableRecord
  2
*D1
340
0
  0
BLOCK_RECORD
  5
460
330
1
100
AcDbSymbolTableRecord
100
AcDbBlockTableRecord
  2
*D2
340
0
  0
BLOCK_RECORD
  5
46E
330
1
100
AcDbSymbolTableRecord
100
AcDbBlockTableRecord
  2
*D3
340
0
  0
BLOCK_RECORD
  5
47C
330
1
100
AcDbSymbolTableRecord
100
AcDbBlockTableRecord
  2
*D4
340
0
  0
BLOCK_RECORD
  5
48A
330
1
100
AcDbSymbolTableRecord
100
AcDbBlockTableRecord
  2
*D5
340
0
  0
BLOCK_RECORD
  5
498
330
1
100
AcDbSymbolTableRecord
100
AcDbBlockTableRecord
  2
*D6
340
0
  0
BLOCK_RECORD
  5
4B8
330
1
100
AcDbSymbolTableRecord
100
AcDbBlockTableRecord
  2
*D7
340
0
  0
BLOCK_RECORD
  5
4F5
330
1
100
AcDbSymbolTableRecord
100
AcDbBlockTableRecord
  2
*D8
340
0
  0
BLOCK_RECORD
  5
505
330
1
100
AcDbSymbolTableRecord
100
AcDbBlockTableRecord
  2
*D9
340
0
  0
BLOCK_RECORD
  5
512
330
1
100
AcDbSymbolTableRecord
100
AcDbBlockTableRecord
  2
*D10
340
0
  0
BLOCK_RECORD
  5
55E
330
1
100
AcDbSymbolTableRecord
100
AcDbBlockTableRecord
  2
*D11
340
0
  0
BLOCK_RECORD
  5
570
330
1
100
AcDbSymbolTableRecord
100
AcDbBlockTableRecord
  2
*D12
340
0
  0
BLOCK_RECORD
  5
579
330
1
100
AcDbSymbolTableRecord
100
AcDbBlockTableRecord
  2
*D13
340
0
  0
BLOCK_RECORD
  5
59B
330
1
100
AcDbSymbolTableRecord
100
AcDbBlockTableRecord
  2
*D14
340
0
  0
BLOCK_RECORD
  5
5BD
330
1
100
AcDbSymbolTableRecord
100
AcDbBlockTableRecord
  2
*D15
340
0
  0
BLOCK_RECORD
  5
632
330
1
100
AcDbSymbolTableRecord
100
AcDbBlockTableRecord
  2
*D16
340
0
  0
BLOCK_RECORD
  5
63F
330
1
100
AcDbSymbolTableRecord
100
AcDbBlockTableRecord
  2
*D17
340
0
  0
BLOCK_RECORD
  5
64C
330
1
100
AcDbSymbolTableRecord
100
AcDbBlockTableRecord
  2
*D18
340
0
  0
BLOCK_RECORD
  5
659
330
1
100
AcDbSymbolTableRecord
100
AcDbBlockTableRecord
  2
*D19
340
0
  0
BLOCK_RECORD
  5
668
330
1
100
AcDbSymbolTableRecord
100
AcDbBlockTableRecord
  2
*D20
340
0
  0
BLOCK_RECORD
  5
675
330
1
100
AcDbSymbolTableRecord
100
AcDbBlockTableRecord
  2
*D21
340
0
  0
BLOCK_RECORD
  5
682
330
1
100
AcDbSymbolTableRecord
100
AcDbBlockTableRecord
  2
*D22
340
0
  0
BLOCK_RECORD
  5
695
330
1
100
AcDbSymbolTableRecord
100
AcDbBlockTableRecord
  2
*D23
340
0
  0
BLOCK_RECORD
  5
6A2
330
1
100
AcDbSymbolTableRecord
100
AcDbBlockTableRecord
  2
*D24
340
0
  0
BLOCK_RECORD
  5
86B
330
1
100
AcDbSymbolTableRecord
100
AcDbBlockTableRecord
  2
GENAXEH
340
0
  0
ENDTAB
  0
ENDSEC
  0
SECTION
  2
BLOCKS
  0
BLOCK
  5
20
330
1F
100
AcDbEntity
  8
0
100
AcDbBlockBegin
  2
*Model_Space
 70
     0
 10
0.0
 20
0.0
 30
0.0
  3
*Model_Space
  1

  0
ENDBLK
  5
21
330
1F
100
AcDbEntity
  8
0
100
AcDbBlockEnd
  0
BLOCK
  5
1C
330
1B
100
AcDbEntity
 67
     1
  8
0
100
AcDbBlockBegin
  2
*Paper_Space
 70
     0
 10
0.0
 20
0.0
 30
0.0
  3
*Paper_Space
  1

  0
ENDBLK
  5
1D
330
1B
100
AcDbEntity
 67
     1
  8
0
100
AcDbBlockEnd
  0
BLOCK
  5
24
330
23
100
AcDbEntity
  8
0
100
AcDbBlockBegin
  2
*Paper_Space0
 70
     0
 10
0.0
 20
0.0
 30
0.0
  3
*Paper_Space0
  1

  0
ENDBLK
  5
25
330
23
100
AcDbEntity
  8
0
100
AcDbBlockEnd
  0
BLOCK
  5
45D
330
452
100
AcDbEntity
  8
0
100
AcDbBlockBegin
  2
*D1
 70
     1
 10
0.0
 20
0.0
 30
0.0
  3
*D1
  1

  0
LINE
  5
453
330
452
100
AcDbEntity
  8
BEMAßUNG
 62
     0
370
    -2
100
AcDbLine
 10
217.4859611411191
 20
127.4182233371814
 30
0.0
 11
212.9782798877279
 21
135.2257562923807
 31
0.0
  0
ARC
  5
454
330
452
100
AcDbEntity
  8
BEMAßUNG
 62
     0
370
    -2
100
AcDbCircle
 10
232.4234611411191
 20
101.5457143991213
 30
0.0
 40
37.64036250678238
100
AcDbArc
 50
123.806174560421
 51
176.1938254395789
  0
SOLID
  5
455
330
452
100
AcDbEntity
  8
BEMAßUNG
 62
     0
100
AcDbTrace
 10
211.2607201569175
 20
133.1757406779934
 30
0.0
 11
211.7011235563094
 21
132.4682880009552
 31
0.0
 12
213.6032798877279
 22
134.1432245376502
 32
0.0
 13
213.6032798877279
 23
134.1432245376502
 33
0.0
  0
SOLID
  5
456
330
452
100
AcDbEntity
  8
BEMAßUNG
 62
     0
100
AcDbTrace
 10
195.282558059132
 20
104.0304983724466
 30
0.0
 11
194.4496843691456
 21
104.0581725657139
 31
0.0
 12
194.7830986343367
 22
101.5457143991213
 32
0.0
 13
194.7830986343367
 23
101.5457143991213
 33
0.0
  0
MTEXT
  5
457
330
452
100
AcDbEntity
  8
BEMAßUNG
 62
     0
100
AcDbMText
 10
198.2021533704944
 20
121.3033956525125
 30
0.0
 40
2.5
 41
0.0
 71
     5
 72
     1
  1
60°
 11
0.5000000000000009
 21
0.8660254037844381
 31
0.0
 73
     1
 44
1.0
1001
ACAD
1000
MTEXTBEGIN
1070
    73
1070
     1
1070
    44
1040
1.0
1070
    74
1070
     0
1000
MTEXTEND
  0
POINT
  5
458
330
452
100
AcDbEntity
  8
DEFPOINTS
 62
     0
100
AcDbPoint
 10
203.5892706058145
 20
125.7404730425908
 30
0.0
  0
POINT
  5
459
330
452
100
AcDbEntity
  8
DEFPOINTS
 62
     0
100
AcDbPoint
 10
126.5448076864607
 20
101.5457143991213
 30
0.0
  0
POINT
  5
45A
330
452
100
AcDbEntity
  8
DEFPOINTS
 62
     0
100
AcDbPoint
 10
217.7984611411191
 20
126.8769574598161
 30
0.0
  0
POINT
  5
45B
330
452
100
AcDbEntity
  8
DEFPOINTS
 62
     0
100
AcDbPoint
 10
232.4234611411192
 20
101.5457143991213
 30
0.0
  0
POINT
  5
45C
330
452
100
AcDbEntity
  8
DEFPOINTS
 62
     0
100
AcDbPoint
 10
368.3105044114977
 20
101.5457143991213
 30
0.0
  0
ENDBLK
  5
45E
330
452
100
AcDbEntity
  8
0
100
AcDbBlockEnd
  0
BLOCK
  5
46B
330
460
100
AcDbEntity
  8
0
100
AcDbBlockBegin
  2
*D2
 70
     1
 10
0.0
 20
0.0
 30
0.0
  3
*D2
  1

  0
LINE
  5
461
330
460
100
AcDbEntity
  8
BEMAßUNG
 62
     0
370
    -2
100
AcDbLine
 10
247.3609611411192
 20
127.4182233371813
 30
0.0
 11
251.8686423945105
 21
135.2257562923807
 31
0.0
  0
LINE
  5
462
330
460
100
AcDbEntity
  8
BEMAßUNG
 62
     0
370
    -2
100
AcDbLine
 10
217.4859611411191
 20
127.4182233371814
 30
0.0
 11
212.9782798877279
 21
135.2257562923808
 31
0.0
  0
ARC
  5
463
330
460
100
AcDbEntity
  8
BEMAßUNG
 62
     0
370
    -2
100
AcDbCircle
 10
232.4234611411191
 20
101.5457143991213
 30
0.0
 40
37.64036250678251
100
AcDbArc
 50
63.80617456042091
 51
116.1938254395789
  0
SOLID
  5
464
330
460
100
AcDbEntity
  8
BEMAßUNG
 62
     0
100
AcDbTrace
 10
249.234496928891
 20
135.6881988445861
 30
0.0
 11
248.8420266382966
 21
134.9530719742805
 31
0.0
 12
251.2436423945104
 22
134.1432245376502
 32
0.0
 13
251.2436423945104
 23
134.1432245376502
 33
0.0
  0
SOLID
  5
465
330
460
100
AcDbEntity
  8
BEMAßUNG
 62
     0
100
AcDbTrace
 10
216.0048956439417
 20
134.9530719742806
 30
0.0
 11
215.6124253533473
 21
135.6881988445861
 31
0.0
 12
213.6032798877279
 22
134.1432245376502
 32
0.0
 13
213.6032798877279
 23
134.1432245376502
 33
0.0
  0
MTEXT
  5
466
330
460
100
AcDbEntity
  8
BEMAßUNG
 62
     0
100
AcDbMText
 10
232.4234611411192
 20
141.0610769059037
 30
0.0
 40
2.5
 41
0.0
 71
     5
 72
     1
  1
60°
 73
     1
 44
1.0
1001
ACAD
1000
MTEXTBEGIN
1070
    73
1070
     1
1070
    44
1040
1.0
1070
    74
1070
     0
1000
MTEXTEND
  0
POINT
  5
467
330
460
100
AcDbEntity
  8
DEFPOINTS
 62
     0
100
AcDbPoint
 10
232.4234611411191
 20
101.5457143991213
 30
0.0
  0
POINT
  5
468
330
460
100
AcDbEntity
  8
DEFPOINTS
 62
     0
100
AcDbPoint
 10
247.0484611411192
 20
126.876957459816
 30
0.0
  0
POINT
  5
469
330
460
100
AcDbEntity
  8
DEFPOINTS
 62
     0
100
AcDbPoint
 10
217.7984611411191
 20
126.8769574598161
 30
0.0
  0
POINT
  5
46A
330
460
100
AcDbEntity
  8
DEFPOINTS
 62
     0
100
AcDbPoint
 10
238.9596414971446
 20
138.6142352219907
 30
0.0
  0
ENDBLK
  5
46C
330
460
100
AcDbEntity
  8
0
100
AcDbBlockEnd
  0
BLOCK
  5
479
330
46E
100
AcDbEntity
  8
0
100
AcDbBlockBegin
  2
*D3
 70
     1
 10
0.0
 20
0.0
 30
0.0
  3
*D3
  1

  0
LINE
  5
46F
330
46E
100
AcDbEntity
  8
BEMAßUNG
 62
     0
370
    -2
100
AcDbLine
 10
262.2984611411191
 20
101.5457143991213
 30
0.0
 11
271.3138236479017
 21
101.5457143991213
 31
0.0
  0
LINE
  5
470
330
46E
100
AcDbEntity
  8
BEMAßUNG
 62
     0
370
    -2
100
AcDbLine
 10
247.3609611411192
 20
127.4182233371813
 30
0.0
 11
251.8686423945105
 21
135.2257562923808
 31
0.0
  0
ARC
  5
471
330
46E
100
AcDbEntity
  8
BEMAßUNG
 62
     0
370
    -2
100
AcDbCircle
 10
232.4234611411191
 20
101.5457143991213
 30
0.0
 40
37.64036250678259
100
AcDbArc
 50
3.806174560421015
 51
56.19382543957882
  0
SOLID
  5
472
330
46E
100
AcDbEntity
  8
BEMAßUNG
 62
     0
100
AcDbTrace
 10
270.3972379130927
 20
104.0581725657139
 30
0.0
 11
269.5643642231064
 21
104.0304983724466
 31
0.0
 12
270.0638236479017
 22
101.5457143991213
 32
0.0
 13
270.0638236479017
 23
101.5457143991213
 33
0.0
  0
SOLID
  5
473
330
46E
100
AcDbEntity
  8
BEMAßUNG
 62
     0
100
AcDbTrace
 10
253.1457987259289
 20
132.4682880009553
 30
0.0
 11
253.5862021253209
 21
133.1757406779935
 31
0.0
 12
251.2436423945105
 22
134.1432245376502
 32
0.0
 13
251.2436423945105
 23
134.1432245376502
 33
0.0
  0
MTEXT
  5
474
330
46E
100
AcDbEntity
  8
BEMAßUNG
 62
     0
100
AcDbMText
 10
266.644768911744
 20
121.3033956525125
 30
0.0
 40
2.5
 41
0.0
 71
     5
 72
     1
  1
60°
 11
0.4999999999999988
 21
-0.8660254037844394
 31
0.0
 73
     1
 44
1.0
1001
ACAD
1000
MTEXTBEGIN
1070
    73
1070
     1
1070
    44
1040
1.0
1070
    74
1070
     0
1000
MTEXTEND
  0
POINT
  5
475
330
46E
100
AcDbEntity
  8
DEFPOINTS
 62
     0
100
AcDbPoint
 10
232.4234611411191
 20
101.5457143991213
 30
0.0
  0
POINT
  5
476
330
46E
100
AcDbEntity
  8
DEFPOINTS
 62
     0
100
AcDbPoint
 10
261.6734611411191
 20
101.5457143991213
 30
0.0
  0
POINT
  5
477
330
46E
100
AcDbEntity
  8
DEFPOINTS
 62
     0
100
AcDbPoint
 10
247.0484611411192
 20
126.876957459816
 30
0.0
  0
POINT
  5
478
330
46E
100
AcDbEntity
  8
DEFPOINTS
 62
     0
100
AcDbPoint
 10
267.7938320324492
 20
114.4194765785211
 30
0.0
  0
ENDBLK
  5
47A
330
46E
100
AcDbEntity
  8
0
100
AcDbBlockEnd
  0
BLOCK
  5
487
330
47C
100
AcDbEntity
  8
0
100
AcDbBlockBegin
  2
*D4
 70
     1
 10
0.0
 20
0.0
 30
0.0
  3
*D4
  1

  0
LINE
  5
47D
330
47C
100
AcDbEntity
  8
BEMAßUNG
 62
     0
370
    -2
100
AcDbLine
 10
247.3609611411191
 20
75.67320546106117
 30
0.0
 11
251.8686423945104
 21
67.86567250586177
 31
0.0
  0
LINE
  5
47E
330
47C
100
AcDbEntity
  8
BEMAßUNG
 62
     0
370
    -2
100
AcDbLine
 10
262.2984611411191
 20
101.5457143991213
 30
0.0
 11
271.3138236479016
 21
101.5457143991212
 31
0.0
  0
ARC
  5
47F
330
47C
100
AcDbEntity
  8
BEMAßUNG
 62
     0
370
    -2
100
AcDbCircle
 10
232.4234611411191
 20
101.5457143991213
 30
0.0
 40
37.64036250678251
100
AcDbArc
 50
303.806174560421
 51
356.1938254395789
  0
SOLID
  5
480
330
47C
100
AcDbEntity
  8
BEMAßUNG
 62
     0
100
AcDbTrace
 10
253.5862021253208
 20
69.91568812024908
 30
0.0
 11
253.1457987259289
 21
70.62314079728725
 31
0.0
 12
251.2436423945104
 22
68.94820426059232
 32
0.0
 13
251.2436423945104
 23
68.94820426059232
 33
0.0
  0
SOLID
  5
481
330
47C
100
AcDbEntity
  8
BEMAßUNG
 62
     0
100
AcDbTrace
 10
269.5643642231063
 20
99.06093042579593
 30
0.0
 11
270.3972379130926
 21
99.03325623252857
 31
0.0
 12
270.0638236479016
 22
101.5457143991212
 32
0.0
 13
270.0638236479016
 23
101.5457143991212
 33
0.0
  0
MTEXT
  5
482
330
47C
100
AcDbEntity
  8
BEMAßUNG
 62
     0
100
AcDbMText
 10
263.3971736475522
 20
83.66303314573002
 30
0.0
 40
2.5
 41
0.0
 71
     5
 72
     1
  1
60°
 11
0.5000000000000007
 21
0.8660254037844381
 31
0.0
 73
     1
 44
1.0
1001
ACAD
1000
MTEXTBEGIN
1070
    73
1070
     1
1070
    44
1040
1.0
1070
    74
1070
     0
1000
MTEXTEND
  0
POINT
  5
483
330
47C
100
AcDbEntity
  8
DEFPOINTS
 62
     0
100
AcDbPoint
 10
232.4234611411191
 20
101.5457143991213
 30
0.0
  0
POINT
  5
484
330
47C
100
AcDbEntity
  8
DEFPOINTS
 62
     0
100
AcDbPoint
 10
247.0484611411191
 20
76.21447133842645
 30
0.0
  0
POINT
  5
485
330
47C
100
AcDbEntity
  8
DEFPOINTS
 62
     0
100
AcDbPoint
 10
261.6734611411191
 20
101.5457143991213
 30
0.0
  0
POINT
  5
486
330
47C
100
AcDbEntity
  8
DEFPOINTS
 62
     0
100
AcDbPoint
 10
261.2576516764237
 20
77.3509557556517
 30
0.0
  0
ENDBLK
  5
488
330
47C
100
AcDbEntity
  8
0
100
AcDbBlockEnd
  0
BLOCK
  5
495
330
48A
100
AcDbEntity
  8
0
100
AcDbBlockBegin
  2
*D5
 70
     1
 10
0.0
 20
0.0
 30
0.0
  3
*D5
  1

  0
LINE
  5
48B
330
48A
100
AcDbEntity
  8
BEMAßUNG
 62
     0
370
    -2
100
AcDbLine
 10
217.4859611411191
 20
75.67320546106114
 30
0.0
 11
212.9782798877279
 21
67.86567250586173
 31
0.0
  0
LINE
  5
48C
330
48A
100
AcDbEntity
  8
BEMAßUNG
 62
     0
370
    -2
100
AcDbLine
 10
247.3609611411191
 20
75.67320546106116
 30
0.0
 11
251.8686423945104
 21
67.86567250586175
 31
0.0
  0
ARC
  5
48D
330
48A
100
AcDbEntity
  8
BEMAßUNG
 62
     0
370
    -2
100
AcDbCircle
 10
232.4234611411191
 20
101.5457143991213
 30
0.0
 40
37.6403625067825
100
AcDbArc
 50
243.8061745604211
 51
296.1938254395789
  0
SOLID
  5
48E
330
48A
100
AcDbEntity
  8
BEMAßUNG
 62
     0
100
AcDbTrace
 10
215.6124253533473
 20
67.40322995365639
 30
0.0
 11
216.0048956439417
 21
68.13835682396192
 31
0.0
 12
213.6032798877279
 22
68.94820426059229
 32
0.0
 13
213.6032798877279
 23
68.94820426059229
 33
0.0
  0
SOLID
  5
48F
330
48A
100
AcDbEntity
  8
BEMAßUNG
 62
     0
100
AcDbTrace
 10
248.8420266382965
 20
68.13835682396192
 30
0.0
 11
249.2344969288909
 21
67.40322995365639
 31
0.0
 12
251.2436423945104
 22
68.94820426059229
 32
0.0
 13
251.2436423945104
 23
68.94820426059229
 33
0.0
  0
MTEXT
  5
490
330
48A
100
AcDbEntity
  8
BEMAßUNG
 62
     0
100
AcDbMText
 10
232.4234611411191
 20
65.78035189233876
 30
0.0
 40
2.5
 41
0.0
 71
     5
 72
     1
  1
60°
 73
     1
 44
1.0
1001
ACAD
1000
MTEXTBEGIN
1070
    73
1070
     1
1070
    44
1040
1.0
1070
    74
1070
     0
1000
MTEXTEND
  0
POINT
  5
491
330
48A
100
AcDbEntity
  8
DEFPOINTS
 62
     0
100
AcDbPoint
 10
232.4234611411191
 20
101.5457143991213
 30
0.0
  0
POINT
  5
492
330
48A
100
AcDbEntity
  8
DEFPOINTS
 62
     0
100
AcDbPoint
 10
217.7984611411191
 20
76.21447133842642
 30
0.0
  0
POINT
  5
493
330
48A
100
AcDbEntity
  8
DEFPOINTS
 62
     0
100
AcDbPoint
 10
247.0484611411191
 20
76.21447133842643
 30
0.0
  0
POINT
  5
494
330
48A
100
AcDbEntity
  8
DEFPOINTS
 62
     0
100
AcDbPoint
 10
225.8872807850937
 20
64.47719357625183
 30
0.0
  0
ENDBLK
  5
496
330
48A
100
AcDbEntity
  8
0
100
AcDbBlockEnd
  0
BLOCK
  5
4A3
330
498
100
AcDbEntity
  8
0
100
AcDbBlockBegin
  2
*D6
 70
     1
 10
0.0
 20
0.0
 30
0.0
  3
*D6
  1

  0
LINE
  5
499
330
498
100
AcDbEntity
  8
BEMAßUNG
 62
     0
370
    -2
100
AcDbLine
 10
202.5484611411191
 20
101.5457143991212
 30
0.0
 11
193.5330986343366
 21
101.5457143991212
 31
0.0
  0
LINE
  5
49A
330
498
100
AcDbEntity
  8
BEMAßUNG
 62
     0
370
    -2
100
AcDbLine
 10
217.4859611411191
 20
75.67320546106114
 30
0.0
 11
212.9782798877279
 21
67.86567250586177
 31
0.0
  0
ARC
  5
49B
330
498
100
AcDbEntity
  8
BEMAßUNG
 62
     0
370
    -2
100
AcDbCircle
 10
232.4234611411191
 20
101.5457143991212
 30
0.0
 40
37.64036250678242
100
AcDbArc
 50
183.806174560421
 51
236.193825439579
  0
SOLID
  5
49C
330
498
100
AcDbEntity
  8
BEMAßUNG
 62
     0
100
AcDbTrace
 10
194.4496843691456
 20
99.03325623252859
 30
0.0
 11
195.2825580591319
 21
99.06093042579595
 31
0.0
 12
194.7830986343366
 22
101.5457143991212
 32
0.0
 13
194.7830986343366
 23
101.5457143991212
 33
0.0
  0
SOLID
  5
49D
330
498
100
AcDbEntity
  8
BEMAßUNG
 62
     0
100
AcDbTrace
 10
211.7011235563094
 20
70.62314079728728
 30
0.0
 11
211.2607201569174
 21
69.91568812024912
 31
0.0
 12
213.6032798877279
 22
68.94820426059235
 32
0.0
 13
213.6032798877279
 23
68.94820426059235
 33
0.0
  0
MTEXT
  5
49E
330
498
100
AcDbEntity
  8
BEMAßUNG
 62
     0
100
AcDbMText
 10
201.449748634686
 20
83.66303314573002
 30
0.0
 40
2.5
 41
0.0
 71
     5
 72
     1
  1
60°
 11
0.5000000000000004
 21
-0.8660254037844385
 31
0.0
 73
     1
 44
1.0
1001
ACAD
1000
MTEXTBEGIN
1070
    73
1070
     1
1070
    44
1040
1.0
1070
    74
1070
     0
1000
MTEXTEND
  0
POINT
  5
49F
330
498
100
AcDbEntity
  8
DEFPOINTS
 62
     0
100
AcDbPoint
 10
232.4234611411191
 20
101.5457143991212
 30
0.0
  0
POINT
  5
4A0
330
498
100
AcDbEntity
  8
DEFPOINTS
 62
     0
100
AcDbPoint
 10
203.1734611411191
 20
101.5457143991212
 30
0.0
  0
POINT
  5
4A1
330
498
100
AcDbEntity
  8
DEFPOINTS
 62
     0
100
AcDbPoint
 10
217.7984611411191
 20
76.21447133842642
 30
0.0
  0
POINT
  5
4A2
330
498
100
AcDbEntity
  8
DEFPOINTS
 62
     0
100
AcDbPoint
 10
197.053090249789
 20
88.67195221972139
 30
0.0
  0
ENDBLK
  5
4A4
330
498
100
AcDbEntity
  8
0
100
AcDbBlockEnd
  0
BLOCK
  5
4C4
330
4B8
100
AcDbEntity
  8
0
100
AcDbBlockBegin
  2
*D7
 70
     1
 10
0.0
 20
0.0
 30
0.0
  3
*D7
  1

  0
LINE
  5
4DC
330
4B8
100
AcDbEntity
  8
BEMAßUNG
 62
     0
370
    -2
100
AcDbLine
 10
186.7615483482159
 20
93.79161787763775
 30
0.0
 11
182.5494915131265
 21
91.82750351885148
 31
0.0
  0
LINE
  5
4DD
330
4B8
100
AcDbEntity
  8
BEMAßUNG
 62
     0
370
    -2
100
AcDbLine
 10
187.6067964217763
 20
91.97897753434002
 30
0.0
 11
183.3947395866869
 21
90.01486317555375
 31
0.0
  0
LINE
  5
4DE
330
4B8
100
AcDbEntity
  8
BEMAßUNG
 62
     0
370
    -2
100
AcDbLine
 10
182.6258305925705
 20
94.62154581361899
 30
0.0
 11
181.5692849382188
 21
96.88731528121062
 31
0.0
  0
LINE
  5
4DF
330
4B8
100
AcDbEntity
  8
BEMAßUNG
 62
     0
370
    -2
100
AcDbLine
 10
185.5841699748344
 20
88.27736653513799
 30
0.0
 11
187.8733522259298
 21
83.3681993553561
 31
0.0
  0
LINE
  5
4E0
330
4B8
100
AcDbEntity
  8
BEMAßUNG
 62
     0
370
    -2
100
AcDbLine
 10
183.6823762469223
 20
92.35577634602735
 30
0.0
 11
184.5276243204827
 21
90.54313600272962
 31
0.0
  0
SOLID
  5
4E1
330
4B8
100
AcDbEntity
  8
BEMAßUNG
 62
     0
100
AcDbTrace
 10
183.0034588371692
 20
94.79763675601095
 30
0.0
 11
182.248202347972
 21
94.44545487122704
 31
0.0
 12
183.6823762469223
 22
92.35577634602735
 32
0.0
 13
183.6823762469223
 23
92.35577634602735
 33
0.0
  0
SOLID
  5
4E2
330
4B8
100
AcDbEntity
  8
BEMAßUNG
 62
     0
100
AcDbTrace
 10
185.961798219433
 20
88.45345747752993
 30
0.0
 11
185.2065417302358
 21
88.10127559274603
 31
0.0
 12
184.5276243204827
 22
90.54313600272962
 32
0.0
 13
184.5276243204827
 23
90.54313600272962
 33
0.0
  0
MTEXT
  5
4E3
330
4B8
100
AcDbEntity
  8
BEMAßUNG
 62
     0
100
AcDbMText
 10
188.9563610282517
 20
85.48230745221504
 30
0.0
 40
2.5
 41
0.0
 71
     5
 72
     1
  1
2
 11
0.4226182617406895
 21
-0.9063077870366546
 31
0.0
 73
     1
 44
1.0
1001
ACAD
1000
MTEXTBEGIN
1070
    73
1070
     1
1070
    44
1040
1.0
1070
    74
1070
     0
1000
MTEXTEND
  0
POINT
  5
4E4
330
4B8
100
AcDbEntity
  8
DEFPOINTS
 62
     0
100
AcDbPoint
 10
187.3279907151138
 20
94.05575429122569
 30
0.0
  0
POINT
  5
4E5
330
4B8
100
AcDbEntity
  8
DEFPOINTS
 62
     0
100
AcDbPoint
 10
188.1732387886742
 20
92.24311394792795
 30
0.0
  0
POINT
  5
4E6
330
4B8
100
AcDbEntity
  8
DEFPOINTS
 62
     0
100
AcDbPoint
 10
184.5276243204827
 20
90.54313600272962
 30
0.0
  0
ENDBLK
  5
4C5
330
4B8
100
AcDbEntity
  8
0
100
AcDbBlockEnd
  0
BLOCK
  5
502
330
4F5
100
AcDbEntity
  8
0
100
AcDbBlockBegin
  2
*D8
 70
     1
 10
0.0
 20
0.0
 30
0.0
  3
*D8
  1

  0
LINE
  5
4F6
330
4F5
100
AcDbEntity
  8
BEMAßUNG
 62
     0
370
    -2
100
AcDbLine
 10
202.6084073507305
 20
101.2786203820272
 30
0.0
 11
187.2746146981824
 21
94.03052410071783
 31
0.0
  0
ARC
  5
4F7
330
4F5
100
AcDbEntity
  8
BEMAßUNG
 62
     0
370
    -2
100
AcDbCircle
 10
203.1734611411191
 20
101.5457143991213
 30
0.0
 40
16.33554529826407
100
AcDbArc
 50
162.4456910464509
 51
171.2228455232255
  0
ARC
  5
4F8
330
4F5
100
AcDbEntity
  8
BEMAßUNG
 62
     0
370
    -2
100
AcDbCircle
 10
203.1734611411191
 20
101.5457143991213
 30
0.0
 40
16.33554529826407
100
AcDbArc
 50
214.0766832225789
 51
222.8538376993534
  0
ARC
  5
4F9
330
4F5
100
AcDbEntity
  8
BEMAßUNG
 62
     0
370
    -2
100
AcDbCircle
 10
203.1734611411191
 20
101.5457143991213
 30
0.0
 40
16.33554529826407
100
AcDbArc
 50
180.0
 51
205.2995287458044
  0
SOLID
  5
4FA
330
4F5
100
AcDbEntity
  8
BEMAßUNG
 62
     0
100
AcDbTrace
 10
187.4446614777603
 20
104.0065010305939
 30
0.0
 11
186.6137714548554
 21
104.0702679050782
 31
0.0
 12
186.8379158428551
 22
101.5457143991213
 32
0.0
 13
186.8379158428551
 23
101.5457143991213
 33
0.0
  0
SOLID
  5
4FB
330
4F5
100
AcDbEntity
  8
BEMAßUNG
 62
     0
100
AcDbTrace
 10
189.2809454809458
 20
92.18651029077816
 30
0.0
 11
190.0048907708258
 21
92.59924223975351
 31
0.0
 12
188.4047222789597
 22
94.56471213490585
 32
0.0
 13
188.4047222789597
 23
94.56471213490585
 33
0.0
  0
MTEXT
  5
4FC
330
4F5
100
AcDbEntity
  8
BEMAßUNG
 62
     0
100
AcDbMText
 10
189.0639177423761
 20
98.37898810811736
 30
0.0
 40
2.5
 41
0.0
 71
     5
 72
     1
  1
25°
 11
0.2189907936171739
 21
-0.9757269250722357
 31
0.0
 73
     1
 44
1.0
1001
ACAD
1000
MTEXTBEGIN
1070
    73
1070
     1
1070
    44
1040
1.0
1070
    74
1070
     0
1000
MTEXTEND
  0
POINT
  5
4FD
330
4F5
100
AcDbEntity
  8
DEFPOINTS
 62
     0
100
AcDbPoint
 10
187.0145426199996
 20
99.15001149194365
 30
0.0
  0
POINT
  5
4FE
330
4F5
100
AcDbEntity
  8
DEFPOINTS
 62
     0
100
AcDbPoint
 10
203.1734611411191
 20
101.5457143991213
 30
0.0
  0
POINT
  5
4FF
330
4F5
100
AcDbEntity
  8
DEFPOINTS
 62
     0
100
AcDbPoint
 10
126.5448076864607
 20
101.5457143991213
 30
0.0
  0
POINT
  5
500
330
4F5
100
AcDbEntity
  8
DEFPOINTS
 62
     0
100
AcDbPoint
 10
368.3105044114977
 20
101.5457143991213
 30
0.0
  0
POINT
  5
501
330
4F5
100
AcDbEntity
  8
DEFPOINTS
 62
     0
100
AcDbPoint
 10
227.0815807992388
 20
112.8467902068942
 30
0.0
  0
ENDBLK
  5
503
330
4F5
100
AcDbEntity
  8
0
100
AcDbBlockEnd
  0
BLOCK
  5
50F
330
505
100
AcDbEntity
  8
0
100
AcDbBlockBegin
  2
*D9
 70
     1
 10
0.0
 20
0.0
 30
0.0
  3
*D9
  1

  0
LINE
  5
527
330
505
100
AcDbEntity
  8
BEMAßUNG
 62
     0
370
    -2
100
AcDbLine
 10
203.1734611411191
 20
100.9207143991212
 30
0.0
 11
203.1734611411191
 21
48.01927982666467
 31
0.0
  0
LINE
  5
528
330
505
100
AcDbEntity
  8
BEMAßUNG
 62
     0
370
    -2
100
AcDbLine
 10
261.6734611411191
 20
100.9207143991212
 30
0.0
 11
261.6734611411191
 21
48.01927982666467
 31
0.0
  0
LINE
  5
529
330
505
100
AcDbEntity
  8
BEMAßUNG
 62
     0
370
    -2
100
AcDbLine
 10
205.6734611411191
 20
49.26927982666467
 30
0.0
 11
259.1734611411191
 21
49.26927982666467
 31
0.0
  0
SOLID
  5
52A
330
505
100
AcDbEntity
  8
BEMAßUNG
 62
     0
100
AcDbTrace
 10
205.6734611411191
 20
49.68594649333134
 30
0.0
 11
205.6734611411191
 21
48.85261315999801
 31
0.0
 12
203.1734611411191
 22
49.26927982666467
 32
0.0
 13
203.1734611411191
 23
49.26927982666467
 33
0.0
  0
SOLID
  5
52B
330
505
100
AcDbEntity
  8
BEMAßUNG
 62
     0
100
AcDbTrace
 10
259.1734611411191
 20
49.68594649333134
 30
0.0
 11
259.1734611411191
 21
48.85261315999801
 31
0.0
 12
261.6734611411191
 22
49.26927982666467
 32
0.0
 13
261.6734611411191
 23
49.26927982666467
 33
0.0
  0
MTEXT
  5
52C
330
505
100
AcDbEntity
  8
BEMAßUNG
 62
     0
100
AcDbMText
 10
232.4234611411191
 20
51.35261315999801
 30
0.0
 40
2.5
 41
0.0
 71
     5
 72
     1
  1
%%c58,5
 73
     1
 44
1.0
1001
ACAD
1000
MTEXTBEGIN
1070
    73
1070
     1
1070
    44
1040
1.0
1070
    74
1070
     0
1000
MTEXTEND
  0
POINT
  5
52D
330
505
100
AcDbEntity
  8
DEFPOINTS
 62
     0
100
AcDbPoint
 10
203.1734611411191
 20
101.5457143991213
 30
0.0
  0
POINT
  5
52E
330
505
100
AcDbEntity
  8
DEFPOINTS
 62
     0
100
AcDbPoint
 10
261.6734611411191
 20
101.5457143991212
 30
0.0
  0
POINT
  5
52F
330
505
100
AcDbEntity
  8
DEFPOINTS
 62
     0
100
AcDbPoint
 10
261.6734611411191
 20
49.26927982666467
 30
0.0
  0
ENDBLK
  5
510
330
505
100
AcDbEntity
  8
0
100
AcDbBlockEnd
  0
BLOCK
  5
51C
330
512
100
AcDbEntity
  8
0
100
AcDbBlockBegin
  2
*D10
 70
     1
 10
0.0
 20
0.0
 30
0.0
  3
*D10
  1

  0
LINE
  5
51E
330
512
100
AcDbEntity
  8
BEMAßUNG
 62
     0
370
    -2
100
AcDbLine
 10
211.9234611411191
 20
100.9207143991212
 30
0.0
 11
211.9234611411191
 21
55.53675677155474
 31
0.0
  0
LINE
  5
51F
330
512
100
AcDbEntity
  8
BEMAßUNG
 62
     0
370
    -2
100
AcDbLine
 10
252.9234611411191
 20
100.9207143991212
 30
0.0
 11
252.9234611411191
 21
55.53675677155474
 31
0.0
  0
LINE
  5
520
330
512
100
AcDbEntity
  8
BEMAßUNG
 62
     0
370
    -2
100
AcDbLine
 10
214.4234611411191
 20
56.78675677155474
 30
0.0
 11
250.4234611411191
 21
56.78675677155474
 31
0.0
  0
SOLID
  5
521
330
512
100
AcDbEntity
  8
BEMAßUNG
 62
     0
100
AcDbTrace
 10
214.4234611411191
 20
57.2034234382214
 30
0.0
 11
214.4234611411191
 21
56.37009010488807
 31
0.0
 12
211.9234611411191
 22
56.78675677155474
 32
0.0
 13
211.9234611411191
 23
56.78675677155474
 33
0.0
  0
SOLID
  5
522
330
512
100
AcDbEntity
  8
BEMAßUNG
 62
     0
100
AcDbTrace
 10
250.4234611411191
 20
57.2034234382214
 30
0.0
 11
250.4234611411191
 21
56.37009010488807
 31
0.0
 12
252.9234611411191
 22
56.78675677155474
 32
0.0
 13
252.9234611411191
 23
56.78675677155474
 33
0.0
  0
MTEXT
  5
523
330
512
100
AcDbEntity
  8
BEMAßUNG
 62
     0
100
AcDbMText
 10
232.4234611411191
 20
58.66175677155474
 30
0.0
 40
2.5
 41
0.0
 71
     5
 72
     1
  1
%%c41
 73
     1
 44
1.0
1001
ACAD
1000
MTEXTBEGIN
1070
    73
1070
     1
1070
    44
1040
1.0
1070
    74
1070
     0
1000
MTEXTEND
  0
POINT
  5
524
330
512
100
AcDbEntity
  8
DEFPOINTS
 62
     0
100
AcDbPoint
 10
211.9234611411191
 20
101.5457143991213
 30
0.0
  0
POINT
  5
525
330
512
100
AcDbEntity
  8
DEFPOINTS
 62
     0
100
AcDbPoint
 10
252.9234611411191
 20
101.5457143991213
 30
0.0
  0
POINT
  5
526
330
512
100
AcDbEntity
  8
DEFPOINTS
 62
     0
100
AcDbPoint
 10
252.9234611411191
 20
56.78675677155474
 30
0.0
  0
ENDBLK
  5
51D
330
512
100
AcDbEntity
  8
0
100
AcDbBlockEnd
  0
BLOCK
  5
564
330
55E
100
AcDbEntity
  8
0
100
AcDbBlockBegin
  2
*D11
 70
     1
 10
0.0
 20
0.0
 30
0.0
  3
*D11
  1

  0
LINE
  5
55F
330
55E
100
AcDbEntity
  8
BEMAßUNG
 62
     0
370
    -2
100
AcDbLine
 10
213.9855994004602
 20
179.5591135725843
 30
0.0
 11
217.7882073944852
 21
166.0258889583976
 31
0.0
  0
MTEXT
  5
560
330
55E
100
AcDbEntity
  8
BEMAßUNG
 62
     0
100
AcDbMText
 10
216.5233198665428
 20
177.458954226137
 30
0.0
 40
2.5
 41
0.0
 71
     5
 72
     1
  1
R2
 11
0.2705074932681148
 21
-0.962717869412322
 31
0.0
 73
     1
 44
1.0
1001
ACAD
1000
MTEXTBEGIN
1070
    73
1070
     1
1070
    44
1040
1.0
1070
    74
1070
     0
1000
MTEXTEND
  0
SOLID
  5
561
330
55E
100
AcDbEntity
  8
BEMAßUNG
 62
     0
100
AcDbTrace
 10
218.1893398400737
 20
166.138600413926
 30
0.0
 11
217.3870749488968
 21
165.9131775028692
 31
0.0
 12
218.4644761276555
 22
163.6190942848668
 32
0.0
 13
218.4644761276555
 23
163.6190942848668
 33
0.0
  0
POINT
  5
562
330
55E
100
AcDbEntity
  8
DEFPOINTS
 62
     0
100
AcDbPoint
 10
218.4644761276555
 20
163.6190942848668
 30
0.0
  0
POINT
  5
563
330
55E
100
AcDbEntity
  8
DEFPOINTS
 62
     0
100
AcDbPoint
 10
217.9234611411192
 20
165.5445300236916
 30
0.0
  0
ENDBLK
  5
565
330
55E
100
AcDbEntity
  8
0
100
AcDbBlockEnd
  0
BLOCK
  5
576
330
570
100
AcDbEntity
  8
0
100
AcDbBlockBegin
  2
*D12
 70
     1
 10
0.0
 20
0.0
 30
0.0
  3
*D12
  1

  0
LINE
  5
571
330
570
100
AcDbEntity
  8
BEMAßUNG
 62
     0
370
    -2
100
AcDbLine
 10
208.4407573235074
 20
166.1364384839958
 30
0.0
 11
217.18659842636
 21
160.5349865875405
 31
0.0
  0
MTEXT
  5
572
330
570
100
AcDbEntity
  8
BEMAßUNG
 62
     0
100
AcDbMText
 10
211.7326743374332
 20
166.2546620766925
 30
0.0
 40
2.5
 41
0.0
 71
     5
 72
     1
  1
R4
 11
0.8420915234938711
 21
-0.5393346512692942
 31
0.0
 73
     1
 44
1.0
1001
ACAD
1000
MTEXTBEGIN
1070
    73
1070
     1
1070
    44
1040
1.0
1070
    74
1070
     0
1000
MTEXTEND
  0
SOLID
  5
573
330
570
100
AcDbEntity
  8
BEMAßUNG
 62
     0
100
AcDbTrace
 10
217.4113211977222
 20
160.885858055663
 30
0.0
 11
216.9618756549978
 21
160.1841151194181
 31
0.0
 12
219.2918272350947
 22
159.1866499593673
 32
0.0
 13
219.2918272350947
 23
159.1866499593673
 33
0.0
  0
POINT
  5
574
330
570
100
AcDbEntity
  8
DEFPOINTS
 62
     0
100
AcDbPoint
 10
219.2918272350947
 20
159.1866499593673
 30
0.0
  0
POINT
  5
575
330
570
100
AcDbEntity
  8
DEFPOINTS
 62
     0
100
AcDbPoint
 10
215.9234611411195
 20
161.3439885644442
 30
0.0
  0
ENDBLK
  5
577
330
570
100
AcDbEntity
  8
0
100
AcDbBlockEnd
  0
BLOCK
  5
589
330
579
100
AcDbEntity
  8
0
100
AcDbBlockBegin
  2
*D13
 70
     1
 10
0.0
 20
0.0
 30
0.0
  3
*D13
  1

  0
LINE
  5
752
330
579
100
AcDbEntity
  8
BEMAßUNG
 62
     0
370
    -2
100
AcDbLine
 10
202.548461141119
 20
154.5445300236913
 30
0.0
 11
188.1037719445078
 21
154.5445300236914
 31
0.0
  0
LINE
  5
753
330
579
100
AcDbEntity
  8
BEMAßUNG
 62
     0
370
    -2
100
AcDbLine
 10
202.5621188906604
 20
154.4145852169303
 30
0.0
 11
188.4330808096496
 21
151.4113654627258
 31
0.0
  0
ARC
  5
754
330
579
100
AcDbEntity
  8
BEMAßUNG
 62
     0
370
    -2
100
AcDbCircle
 10
203.173461141119
 20
154.5445300236913
 30
0.0
 40
13.81968919661118
100
AcDbArc
 50
159.2418651384667
 51
169.6209325692334
  0
ARC
  5
755
330
579
100
AcDbEntity
  8
BEMAßUNG
 62
     0
370
    -2
100
AcDbCircle
 10
203.173461141119
 20
154.5445300236913
 30
0.0
 40
13.81968919661118
100
AcDbArc
 50
202.3790674307668
 51
212.7581348615335
  0
ARC
  5
756
330
579
100
AcDbEntity
  8
BEMAßUNG
 62
     0
370
    -2
100
AcDbCircle
 10
203.173461141119
 20
154.5445300236913
 30
0.0
 40
13.81968919661118
100
AcDbArc
 50
180.0
 51
192.0000000000001
  0
SOLID
  5
757
330
579
100
AcDbEntity
  8
BEMAßUNG
 62
     0
100
AcDbTrace
 10
189.994857317059
 20
156.9965945938469
 30
0.0
 11
189.1649398687625
 21
157.0719701433146
 31
0.0
 12
189.3537719445078
 22
154.5445300236914
 32
0.0
 13
189.3537719445078
 23
154.5445300236914
 33
0.0
  0
SOLID
  5
758
330
579
100
AcDbEntity
  8
BEMAßUNG
 62
     0
100
AcDbTrace
 10
189.9965440174466
 20
149.1597851910914
 30
0.0
 11
190.7926543203687
 21
149.4060631438716
 31
0.0
 12
189.6557653105669
 22
151.671255076248
 32
0.0
 13
189.6557653105669
 23
151.671255076248
 33
0.0
  0
MTEXT
  5
759
330
579
100
AcDbEntity
  8
BEMAßUNG
 62
     0
100
AcDbMText
 10
189.645711895051
 20
162.5021219530209
 30
0.0
 40
2.5
 41
0.0
 71
     5
 72
     1
  1
12°
 11
0.5070244991565524
 21
0.861931643029218
 31
0.0
 73
     1
 44
1.0
1001
ACAD
1000
MTEXTBEGIN
1070
    73
1070
     1
1070
    44
1040
1.0
1070
    74
1070
     0
1000
MTEXTEND
  0
POINT
  5
75A
330
579
100
AcDbEntity
  8
DEFPOINTS
 62
     0
100
AcDbPoint
 10
189.4882642097821
 20
152.6212010238947
 30
0.0
  0
POINT
  5
75B
330
579
100
AcDbEntity
  8
DEFPOINTS
 62
     0
100
AcDbPoint
 10
203.1734611411191
 20
154.5445300236914
 30
0.0
  0
POINT
  5
75C
330
579
100
AcDbEntity
  8
DEFPOINTS
 62
     0
100
AcDbPoint
 10
203.1734611411191
 20
154.5445300236913
 30
0.0
  0
POINT
  5
75D
330
579
100
AcDbEntity
  8
DEFPOINTS
 62
     0
100
AcDbPoint
 10
232.4234611411191
 20
154.5445300236914
 30
0.0
  0
POINT
  5
75E
330
579
100
AcDbEntity
  8
DEFPOINTS
 62
     0
100
AcDbPoint
 10
216.7551079043902
 20
157.4313981615091
 30
0.0
  0
ENDBLK
  5
58A
330
579
100
AcDbEntity
  8
0
100
AcDbBlockEnd
  0
BLOCK
  5
5AB
330
59B
100
AcDbEntity
  8
0
100
AcDbBlockBegin
  2
*D14
 70
     1
 10
0.0
 20
0.0
 30
0.0
  3
*D14
  1

  0
LINE
  5
5CB
330
59B
100
AcDbEntity
  8
BEMAßUNG
 62
     0
370
    -2
100
AcDbLine
 10
256.0528114456049
 20
151.4359999126495
 30
0.0
 11
276.2093116598999
 21
147.8818650882134
 31
0.0
  0
LINE
  5
5CC
330
59B
100
AcDbEntity
  8
BEMAßUNG
 62
     0
370
    -2
100
AcDbLine
 10
262.298461141119
 20
151.5445300236914
 30
0.0
 11
276.5297533200481
 21
151.5445300236914
 31
0.0
  0
ARC
  5
5CD
330
59B
100
AcDbEntity
  8
BEMAßUNG
 62
     0
370
    -2
100
AcDbCircle
 10
255.4373065999722
 20
151.5445300236914
 30
0.0
 40
19.84244672007593
100
AcDbArc
 50
335.5238468941677
 51
350.0
  0
LINE
  5
5CE
330
59B
100
AcDbEntity
  8
BEMAßUNG
 62
     0
370
    -2
100
AcDbLine
 10
273.4965878403898
 20
143.3235171348465
 30
0.0
 11
271.0797534048592
 21
138.0144033586113
 31
0.0
  0
ARC
  5
5CF
330
59B
100
AcDbEntity
  8
BEMAßUNG
 62
     0
370
    -2
100
AcDbCircle
 10
255.4373065999722
 20
151.5445300236914
 30
0.0
 40
19.84244672007593
100
AcDbArc
 50
335.5527534426897
 51
342.7763767213449
  0
ARC
  5
5D0
330
59B
100
AcDbEntity
  8
BEMAßUNG
 62
     0
370
    -2
100
AcDbCircle
 10
255.4373065999722
 20
151.5445300236914
 30
0.0
 40
19.84244672007593
100
AcDbArc
 50
7.223623278655085
 51
14.44724655731033
  0
ARC
  5
5D1
330
59B
100
AcDbEntity
  8
BEMAßUNG
 62
     0
370
    -2
100
AcDbCircle
 10
255.4373065999722
 20
151.5445300236914
 30
0.0
 40
19.84244672007593
100
AcDbArc
 50
350.0
 51
0.0
  0
SOLID
  5
5D2
330
59B
100
AcDbEntity
  8
BEMAßUNG
 62
     0
100
AcDbTrace
 10
273.9849822254095
 20
145.7672034146092
 30
0.0
 11
274.794909312834
 21
145.5710846814382
 31
0.0
 12
274.9783019686347
 22
148.098925310297
 32
0.0
 13
274.9783019686347
 23
148.098925310297
 33
0.0
  0
SOLID
  5
5D3
330
59B
100
AcDbEntity
  8
BEMAßUNG
 62
     0
100
AcDbTrace
 10
275.5381017294039
 20
154.0658128738481
 30
0.0
 11
274.7064235937122
 21
154.0133159876847
 31
0.0
 12
275.2797533200482
 22
151.5445300236914
 32
0.0
 13
275.2797533200482
 23
151.5445300236914
 33
0.0
  0
MTEXT
  5
5D4
330
59B
100
AcDbEntity
  8
BEMAßUNG
 62
     0
100
AcDbMText
 10
270.5816697659775
 20
141.4457998867209
 30
0.0
 40
2.5
 41
0.0
 71
     5
 72
     1
  1
10°
 11
0.4143144746623973
 21
0.9101337902117588
 31
0.0
 73
     1
 44
1.0
1001
ACAD
1000
MTEXTBEGIN
1070
    73
1070
     1
1070
    44
1040
1.0
1070
    74
1070
     0
1000
MTEXTEND
  0
POINT
  5
5D5
330
59B
100
AcDbEntity
  8
DEFPOINTS
 62
     0
100
AcDbPoint
 10
275.246183040687
 20
150.3907943539873
 30
0.0
  0
POINT
  5
5D6
330
59B
100
AcDbEntity
  8
DEFPOINTS
 62
     0
100
AcDbPoint
 10
261.6734611411191
 20
151.5445300236914
 30
0.0
  0
POINT
  5
5D7
330
59B
100
AcDbEntity
  8
DEFPOINTS
 62
     0
100
AcDbPoint
 10
255.4373065999722
 20
151.5445300236914
 30
0.0
  0
POINT
  5
5D8
330
59B
100
AcDbEntity
  8
DEFPOINTS
 62
     0
100
AcDbPoint
 10
238.4234611411191
 20
154.5445300236914
 30
0.0
  0
POINT
  5
5D9
330
59B
100
AcDbEntity
  8
DEFPOINTS
 62
     0
100
AcDbPoint
 10
232.4234611411191
 20
151.5445300236914
 30
0.0
  0
ENDBLK
  5
5AC
330
59B
100
AcDbEntity
  8
0
100
AcDbBlockEnd
  0
BLOCK
  5
5C9
330
5BD
100
AcDbEntity
  8
0
100
AcDbBlockBegin
  2
*D15
 70
     1
 10
0.0
 20
0.0
 30
0.0
  3
*D15
  1

  0
LINE
  5
5BE
330
5BD
100
AcDbEntity
  8
BEMAßUNG
 62
     0
370
    -2
100
AcDbLine
 10
262.2984611411191
 20
154.5445300236914
 30
0.0
 11
270.3335348132774
 21
154.5445300236914
 31
0.0
  0
LINE
  5
5BF
330
5BD
100
AcDbEntity
  8
BEMAßUNG
 62
     0
370
    -2
100
AcDbLine
 10
262.2984611411191
 20
151.5445300236914
 30
0.0
 11
270.3335348132774
 21
151.5445300236914
 31
0.0
  0
LINE
  5
5C0
330
5BD
100
AcDbEntity
  8
BEMAßUNG
 62
     0
370
    -2
100
AcDbLine
 10
269.0835348132774
 20
157.0445300236914
 30
0.0
 11
269.0835348132774
 21
159.5445300236914
 31
0.0
  0
LINE
  5
5C1
330
5BD
100
AcDbEntity
  8
BEMAßUNG
 62
     0
370
    -2
100
AcDbLine
 10
269.0835348132774
 20
149.0445300236914
 30
0.0
 11
269.0835348132774
 21
146.5445300236914
 31
0.0
  0
LINE
  5
5C2
330
5BD
100
AcDbEntity
  8
BEMAßUNG
 62
     0
370
    -2
100
AcDbLine
 10
269.0835348132774
 20
154.5445300236914
 30
0.0
 11
269.0835348132774
 21
151.5445300236914
 31
0.0
  0
SOLID
  5
5C3
330
5BD
100
AcDbEntity
  8
BEMAßUNG
 62
     0
100
AcDbTrace
 10
268.6668681466107
 20
157.0445300236914
 30
0.0
 11
269.500201479944
 21
157.0445300236914
 31
0.0
 12
269.0835348132774
 22
154.5445300236914
 32
0.0
 13
269.0835348132774
 23
154.5445300236914
 33
0.0
  0
SOLID
  5
5C4
330
5BD
100
AcDbEntity
  8
BEMAßUNG
 62
     0
100
AcDbTrace
 10
268.6668681466107
 20
149.0445300236914
 30
0.0
 11
269.500201479944
 21
149.0445300236914
 31
0.0
 12
269.0835348132774
 22
151.5445300236914
 32
0.0
 13
269.0835348132774
 23
151.5445300236914
 33
0.0
  0
MTEXT
  5
5C5
330
5BD
100
AcDbEntity
  8
BEMAßUNG
 62
     0
100
AcDbMText
 10
267.2085348132773
 20
153.0445300236914
 30
0.0
 40
2.5
 41
0.0
 71
     5
 72
     1
  1
3
 11
0.0000000000000001
 21
1.0
 31
0.0
 73
     1
 44
1.0
1001
ACAD
1000
MTEXTBEGIN
1070
    73
1070
     1
1070
    44
1040
1.0
1070
    74
1070
     0
1000
MTEXTEND
  0
POINT
  5
5C6
330
5BD
100
AcDbEntity
  8
DEFPOINTS
 62
     0
100
AcDbPoint
 10
261.6734611411191
 20
154.5445300236914
 30
0.0
  0
POINT
  5
5C7
330
5BD
100
AcDbEntity
  8
DEFPOINTS
 62
     0
100
AcDbPoint
 10
261.6734611411191
 20
151.5445300236914
 30
0.0
  0
POINT
  5
5C8
330
5BD
100
AcDbEntity
  8
DEFPOINTS
 62
     0
100
AcDbPoint
 10
269.0835348132774
 20
151.5445300236914
 30
0.0
  0
ENDBLK
  5
5CA
330
5BD
100
AcDbEntity
  8
0
100
AcDbBlockEnd
  0
BLOCK
  5
63C
330
632
100
AcDbEntity
  8
0
100
AcDbBlockBegin
  2
*D16
 70
     1
 10
0.0
 20
0.0
 30
0.0
  3
*D16
  1

  0
LINE
  5
712
330
632
100
AcDbEntity
  8
BEMAßUNG
 62
     0
370
    -2
100
AcDbLine
 10
316.8178423896252
 20
163.5445300236914
 30
0.0
 11
297.0579941165399
 21
163.5445300236914
 31
0.0
  0
LINE
  5
713
330
632
100
AcDbEntity
  8
BEMAßUNG
 62
     0
370
    -2
100
AcDbLine
 10
302.0678423896252
 20
151.5445300236914
 30
0.0
 11
297.0579941165399
 21
151.5445300236914
 31
0.0
  0
LINE
  5
714
330
632
100
AcDbEntity
  8
BEMAßUNG
 62
     0
370
    -2
100
AcDbLine
 10
298.3079941165399
 20
161.0445300236914
 30
0.0
 11
298.3079941165399
 21
154.0445300236914
 31
0.0
  0
SOLID
  5
715
330
632
100
AcDbEntity
  8
BEMAßUNG
 62
     0
100
AcDbTrace
 10
297.8913274498732
 20
161.0445300236914
 30
0.0
 11
298.7246607832066
 21
161.0445300236914
 31
0.0
 12
298.3079941165399
 22
163.5445300236914
 32
0.0
 13
298.3079941165399
 23
163.5445300236914
 33
0.0
  0
SOLID
  5
716
330
632
100
AcDbEntity
  8
BEMAßUNG
 62
     0
100
AcDbTrace
 10
297.8913274498732
 20
154.0445300236914
 30
0.0
 11
298.7246607832066
 21
154.0445300236914
 31
0.0
 12
298.3079941165399
 22
151.5445300236914
 32
0.0
 13
298.3079941165399
 23
151.5445300236914
 33
0.0
  0
MTEXT
  5
717
330
632
100
AcDbEntity
  8
BEMAßUNG
 62
     0
100
AcDbMText
 10
296.4329941165398
 20
157.5445300236914
 30
0.0
 40
2.5
 41
0.0
 71
     5
 72
     1
  1
12
 11
0.0000000000000001
 21
1.0
 31
0.0
 73
     1
 44
1.0
1001
ACAD
1000
MTEXTBEGIN
1070
    73
1070
     1
1070
    44
1040
1.0
1070
    74
1070
     0
1000
MTEXTEND
  0
POINT
  5
718
330
632
100
AcDbEntity
  8
DEFPOINTS
 62
     0
100
AcDbPoint
 10
317.4428423896252
 20
163.5445300236914
 30
0.0
  0
POINT
  5
719
330
632
100
AcDbEntity
  8
DEFPOINTS
 62
     0
100
AcDbPoint
 10
302.6928423896252
 20
151.5445300236914
 30
0.0
  0
POINT
  5
71A
330
632
100
AcDbEntity
  8
DEFPOINTS
 62
     0
100
AcDbPoint
 10
298.3079941165399
 20
151.5445300236914
 30
0.0
  0
ENDBLK
  5
63D
330
632
100
AcDbEntity
  8
0
100
AcDbBlockEnd
  0
BLOCK
  5
649
330
63F
100
AcDbEntity
  8
0
100
AcDbBlockBegin
  2
*D17
 70
     1
 10
0.0
 20
0.0
 30
0.0
  3
*D17
  1

  0
LINE
  5
700
330
63F
100
AcDbEntity
  8
BEMAßUNG
 62
     0
370
    -2
100
AcDbLine
 10
318.8178423896251
 20
168.5445300236914
 30
0.0
 11
291.9750051912938
 21
168.5445300236914
 31
0.0
  0
LINE
  5
701
330
63F
100
AcDbEntity
  8
BEMAßUNG
 62
     0
370
    -2
100
AcDbLine
 10
302.0678423896252
 20
151.5445300236914
 30
0.0
 11
291.9750051912938
 21
151.5445300236914
 31
0.0
  0
LINE
  5
702
330
63F
100
AcDbEntity
  8
BEMAßUNG
 62
     0
370
    -2
100
AcDbLine
 10
293.2250051912939
 20
166.0445300236914
 30
0.0
 11
293.2250051912939
 21
154.0445300236914
 31
0.0
  0
SOLID
  5
703
330
63F
100
AcDbEntity
  8
BEMAßUNG
 62
     0
100
AcDbTrace
 10
292.8083385246272
 20
166.0445300236914
 30
0.0
 11
293.6416718579605
 21
166.0445300236914
 31
0.0
 12
293.2250051912939
 22
168.5445300236914
 32
0.0
 13
293.2250051912939
 23
168.5445300236914
 33
0.0
  0
SOLID
  5
704
330
63F
100
AcDbEntity
  8
BEMAßUNG
 62
     0
100
AcDbTrace
 10
292.8083385246272
 20
154.0445300236914
 30
0.0
 11
293.6416718579605
 21
154.0445300236914
 31
0.0
 12
293.2250051912939
 22
151.5445300236914
 32
0.0
 13
293.2250051912939
 23
151.5445300236914
 33
0.0
  0
MTEXT
  5
705
330
63F
100
AcDbEntity
  8
BEMAßUNG
 62
     0
100
AcDbMText
 10
291.3500051912938
 20
160.0445300236915
 30
0.0
 40
2.5
 41
0.0
 71
     5
 72
     1
  1
17
 11
0.0000000000000001
 21
1.0
 31
0.0
 73
     1
 44
1.0
1001
ACAD
1000
MTEXTBEGIN
1070
    73
1070
     1
1070
    44
1040
1.0
1070
    74
1070
     0
1000
MTEXTEND
  0
POINT
  5
706
330
63F
100
AcDbEntity
  8
DEFPOINTS
 62
     0
100
AcDbPoint
 10
319.4428423896251
 20
168.5445300236914
 30
0.0
  0
POINT
  5
707
330
63F
100
AcDbEntity
  8
DEFPOINTS
 62
     0
100
AcDbPoint
 10
302.6928423896252
 20
151.5445300236914
 30
0.0
  0
POINT
  5
708
330
63F
100
AcDbEntity
  8
DEFPOINTS
 62
     0
100
AcDbPoint
 10
293.2250051912939
 20
151.5445300236914
 30
0.0
  0
ENDBLK
  5
64A
330
63F
100
AcDbEntity
  8
0
100
AcDbBlockEnd
  0
BLOCK
  5
656
330
64C
100
AcDbEntity
  8
0
100
AcDbBlockBegin
  2
*D18
 70
     1
 10
0.0
 20
0.0
 30
0.0
  3
*D18
  1

  0
LINE
  5
709
330
64C
100
AcDbEntity
  8
BEMAßUNG
 62
     0
370
    -2
100
AcDbLine
 10
310.8178423896252
 20
171.5445300236914
 30
0.0
 11
287.2124321053615
 21
171.5445300236914
 31
0.0
  0
LINE
  5
70A
330
64C
100
AcDbEntity
  8
BEMAßUNG
 62
     0
370
    -2
100
AcDbLine
 10
302.0678423896252
 20
151.5445300236914
 30
0.0
 11
287.2124321053615
 21
151.5445300236914
 31
0.0
  0
LINE
  5
70B
330
64C
100
AcDbEntity
  8
BEMAßUNG
 62
     0
370
    -2
100
AcDbLine
 10
288.4624321053615
 20
169.0445300236914
 30
0.0
 11
288.4624321053615
 21
154.0445300236914
 31
0.0
  0
SOLID
  5
70C
330
64C
100
AcDbEntity
  8
BEMAßUNG
 62
     0
100
AcDbTrace
 10
288.0457654386948
 20
169.0445300236914
 30
0.0
 11
288.8790987720282
 21
169.0445300236914
 31
0.0
 12
288.4624321053615
 22
171.5445300236914
 32
0.0
 13
288.4624321053615
 23
171.5445300236914
 33
0.0
  0
SOLID
  5
70D
330
64C
100
AcDbEntity
  8
BEMAßUNG
 62
     0
100
AcDbTrace
 10
288.0457654386948
 20
154.0445300236914
 30
0.0
 11
288.8790987720282
 21
154.0445300236914
 31
0.0
 12
288.4624321053615
 22
151.5445300236914
 32
0.0
 13
288.4624321053615
 23
151.5445300236914
 33
0.0
  0
MTEXT
  5
70E
330
64C
100
AcDbEntity
  8
BEMAßUNG
 62
     0
100
AcDbMText
 10
286.5874321053615
 20
161.5445300236914
 30
0.0
 40
2.5
 41
0.0
 71
     5
 72
     1
  1
20
 11
0.0000000000000001
 21
1.0
 31
0.0
 73
     1
 44
1.0
1001
ACAD
1000
MTEXTBEGIN
1070
    73
1070
     1
1070
    44
1040
1.0
1070
    74
1070
     0
1000
MTEXTEND
  0
POINT
  5
70F
330
64C
100
AcDbEntity
  8
DEFPOINTS
 62
     0
100
AcDbPoint
 10
311.4428423896252
 20
171.5445300236914
 30
0.0
  0
POINT
  5
710
330
64C
100
AcDbEntity
  8
DEFPOINTS
 62
     0
100
AcDbPoint
 10
302.6928423896252
 20
151.5445300236914
 30
0.0
  0
POINT
  5
711
330
64C
100
AcDbEntity
  8
DEFPOINTS
 62
     0
100
AcDbPoint
 10
288.4624321053615
 20
151.5445300236914
 30
0.0
  0
ENDBLK
  5
657
330
64C
100
AcDbEntity
  8
0
100
AcDbBlockEnd
  0
BLOCK
  5
665
330
659
100
AcDbEntity
  8
0
100
AcDbBlockBegin
  2
*D19
 70
     1
 10
0.0
 20
0.0
 30
0.0
  3
*D19
  1

  0
LINE
  5
6EC
330
659
100
AcDbEntity
  8
BEMAßUNG
 62
     0
370
    -2
100
AcDbLine
 10
338.5678423896252
 20
154.5445300236914
 30
0.0
 11
370.7341571639994
 21
154.5445300236914
 31
0.0
  0
LINE
  5
6ED
330
659
100
AcDbEntity
  8
BEMAßUNG
 62
     0
370
    -2
100
AcDbLine
 10
361.8178423896252
 20
151.5445300236914
 30
0.0
 11
370.7341571639994
 21
151.5445300236914
 31
0.0
  0
LINE
  5
6EE
330
659
100
AcDbEntity
  8
BEMAßUNG
 62
     0
370
    -2
100
AcDbLine
 10
369.4841571639993
 20
157.0445300236914
 30
0.0
 11
369.4841571639993
 21
159.5445300236914
 31
0.0
  0
LINE
  5
6EF
330
659
100
AcDbEntity
  8
BEMAßUNG
 62
     0
370
    -2
100
AcDbLine
 10
369.4841571639993
 20
149.0445300236914
 30
0.0
 11
369.4841571639993
 21
146.5445300236914
 31
0.0
  0
LINE
  5
6F0
330
659
100
AcDbEntity
  8
BEMAßUNG
 62
     0
370
    -2
100
AcDbLine
 10
369.4841571639993
 20
154.5445300236914
 30
0.0
 11
369.4841571639993
 21
151.5445300236914
 31
0.0
  0
SOLID
  5
6F1
330
659
100
AcDbEntity
  8
BEMAßUNG
 62
     0
100
AcDbTrace
 10
369.0674904973326
 20
157.0445300236914
 30
0.0
 11
369.900823830666
 21
157.0445300236914
 31
0.0
 12
369.4841571639993
 22
154.5445300236914
 32
0.0
 13
369.4841571639993
 23
154.5445300236914
 33
0.0
  0
SOLID
  5
6F2
330
659
100
AcDbEntity
  8
BEMAßUNG
 62
     0
100
AcDbTrace
 10
369.0674904973326
 20
149.0445300236914
 30
0.0
 11
369.900823830666
 21
149.0445300236914
 31
0.0
 12
369.4841571639993
 22
151.5445300236914
 32
0.0
 13
369.4841571639993
 23
151.5445300236914
 33
0.0
  0
MTEXT
  5
6F3
330
659
100
AcDbEntity
  8
BEMAßUNG
 62
     0
100
AcDbMText
 10
367.6091571639993
 20
153.0445300236915
 30
0.0
 40
2.5
 41
0.0
 71
     5
 72
     1
  1
3
 11
0.0000000000000001
 21
1.0
 31
0.0
 73
     1
 44
1.0
1001
ACAD
1000
MTEXTBEGIN
1070
    73
1070
     1
1070
    44
1040
1.0
1070
    74
1070
     0
1000
MTEXTEND
  0
POINT
  5
6F4
330
659
100
AcDbEntity
  8
DEFPOINTS
 62
     0
100
AcDbPoint
 10
337.9428423896252
 20
154.5445300236914
 30
0.0
  0
POINT
  5
6F5
330
659
100
AcDbEntity
  8
DEFPOINTS
 62
     0
100
AcDbPoint
 10
361.1928423896252
 20
151.5445300236914
 30
0.0
  0
POINT
  5
6F6
330
659
100
AcDbEntity
  8
DEFPOINTS
 62
     0
100
AcDbPoint
 10
369.4841571639993
 20
151.5445300236914
 30
0.0
  0
ENDBLK
  5
666
330
659
100
AcDbEntity
  8
0
100
AcDbBlockEnd
  0
BLOCK
  5
672
330
668
100
AcDbEntity
  8
0
100
AcDbBlockBegin
  2
*D20
 70
     1
 10
0.0
 20
0.0
 30
0.0
  3
*D20
  1

  0
LINE
  5
739
330
668
100
AcDbEntity
  8
BEMAßUNG
 62
     0
370
    -2
100
AcDbLine
 10
325.9428423896252
 20
153.9195300236914
 30
0.0
 11
325.9428423896252
 21
141.2047898484021
 31
0.0
  0
LINE
  5
73A
330
668
100
AcDbEntity
  8
BEMAßUNG
 62
     0
370
    -2
100
AcDbLine
 10
337.9428423896252
 20
153.9195300236914
 30
0.0
 11
337.9428423896252
 21
141.2047898484021
 31
0.0
  0
LINE
  5
73B
330
668
100
AcDbEntity
  8
BEMAßUNG
 62
     0
370
    -2
100
AcDbLine
 10
328.4428423896252
 20
142.4547898484021
 30
0.0
 11
335.4428423896252
 21
142.4547898484021
 31
0.0
  0
SOLID
  5
73C
330
668
100
AcDbEntity
  8
BEMAßUNG
 62
     0
100
AcDbTrace
 10
328.4428423896252
 20
142.8714565150688
 30
0.0
 11
328.4428423896252
 21
142.0381231817355
 31
0.0
 12
325.9428423896252
 22
142.4547898484021
 32
0.0
 13
325.9428423896252
 23
142.4547898484021
 33
0.0
  0
SOLID
  5
73D
330
668
100
AcDbEntity
  8
BEMAßUNG
 62
     0
100
AcDbTrace
 10
335.4428423896252
 20
142.8714565150688
 30
0.0
 11
335.4428423896252
 21
142.0381231817355
 31
0.0
 12
337.9428423896252
 22
142.4547898484021
 32
0.0
 13
337.9428423896252
 23
142.4547898484021
 33
0.0
  0
MTEXT
  5
73E
330
668
100
AcDbEntity
  8
BEMAßUNG
 62
     0
100
AcDbMText
 10
331.9428423896252
 20
144.3297898484021
 30
0.0
 40
2.5
 41
0.0
 71
     5
 72
     1
  1
%%c12
 73
     1
 44
1.0
1001
ACAD
1000
MTEXTBEGIN
1070
    73
1070
     1
1070
    44
1040
1.0
1070
    74
1070
     0
1000
MTEXTEND
  0
POINT
  5
73F
330
668
100
AcDbEntity
  8
DEFPOINTS
 62
     0
100
AcDbPoint
 10
325.9428423896252
 20
154.5445300236914
 30
0.0
  0
POINT
  5
740
330
668
100
AcDbEntity
  8
DEFPOINTS
 62
     0
100
AcDbPoint
 10
337.9428423896252
 20
154.5445300236914
 30
0.0
  0
POINT
  5
741
330
668
100
AcDbEntity
  8
DEFPOINTS
 62
     0
100
AcDbPoint
 10
337.9428423896252
 20
142.4547898484021
 30
0.0
  0
ENDBLK
  5
673
330
668
100
AcDbEntity
  8
0
100
AcDbBlockEnd
  0
BLOCK
  5
67F
330
675
100
AcDbEntity
  8
0
100
AcDbBlockBegin
  2
*D21
 70
     1
 10
0.0
 20
0.0
 30
0.0
  3
*D21
  1

  0
LINE
  5
742
330
675
100
AcDbEntity
  8
BEMAßUNG
 62
     0
370
    -2
100
AcDbLine
 10
302.6928423896252
 20
150.9195300236914
 30
0.0
 11
302.6928423896252
 21
134.7911307879447
 31
0.0
  0
LINE
  5
743
330
675
100
AcDbEntity
  8
BEMAßUNG
 62
     0
370
    -2
100
AcDbLine
 10
361.1928423896252
 20
150.9195300236914
 30
0.0
 11
361.1928423896252
 21
134.7911307879447
 31
0.0
  0
LINE
  5
744
330
675
100
AcDbEntity
  8
BEMAßUNG
 62
     0
370
    -2
100
AcDbLine
 10
305.1928423896252
 20
136.0411307879447
 30
0.0
 11
358.6928423896252
 21
136.0411307879447
 31
0.0
  0
SOLID
  5
745
330
675
100
AcDbEntity
  8
BEMAßUNG
 62
     0
100
AcDbTrace
 10
305.1928423896252
 20
136.4577974546113
 30
0.0
 11
305.1928423896252
 21
135.624464121278
 31
0.0
 12
302.6928423896252
 22
136.0411307879447
 32
0.0
 13
302.6928423896252
 23
136.0411307879447
 33
0.0
  0
SOLID
  5
746
330
675
100
AcDbEntity
  8
BEMAßUNG
 62
     0
100
AcDbTrace
 10
358.6928423896252
 20
136.4577974546113
 30
0.0
 11
358.6928423896252
 21
135.624464121278
 31
0.0
 12
361.1928423896252
 22
136.0411307879447
 32
0.0
 13
361.1928423896252
 23
136.0411307879447
 33
0.0
  0
MTEXT
  5
747
330
675
100
AcDbEntity
  8
BEMAßUNG
 62
     0
100
AcDbMText
 10
331.9428423896252
 20
138.124464121278
 30
0.0
 40
2.5
 41
0.0
 71
     5
 72
     1
  1
%%c58,5
 73
     1
 44
1.0
1001
ACAD
1000
MTEXTBEGIN
1070
    73
1070
     1
1070
    44
1040
1.0
1070
    74
1070
     0
1000
MTEXTEND
  0
POINT
  5
748
330
675
100
AcDbEntity
  8
DEFPOINTS
 62
     0
100
AcDbPoint
 10
302.6928423896252
 20
151.5445300236914
 30
0.0
  0
POINT
  5
749
330
675
100
AcDbEntity
  8
DEFPOINTS
 62
     0
100
AcDbPoint
 10
361.1928423896252
 20
151.5445300236914
 30
0.0
  0
POINT
  5
74A
330
675
100
AcDbEntity
  8
DEFPOINTS
 62
     0
100
AcDbPoint
 10
361.1928423896252
 20
136.0411307879447
 30
0.0
  0
ENDBLK
  5
680
330
675
100
AcDbEntity
  8
0
100
AcDbBlockEnd
  0
BLOCK
  5
692
330
682
100
AcDbEntity
  8
0
100
AcDbBlockBegin
  2
*D22
 70
     1
 10
0.0
 20
0.0
 30
0.0
  3
*D22
  1

  0
LINE
  5
6CB
330
682
100
AcDbEntity
  8
BEMAßUNG
 62
     0
370
    -2
100
AcDbLine
 10
355.5721926941109
 20
151.4359999126495
 30
0.0
 11
378.4387437514263
 21
147.4040100054972
 31
0.0
  0
LINE
  5
6CC
330
682
100
AcDbEntity
  8
BEMAßUNG
 62
     0
370
    -2
100
AcDbLine
 10
361.8178423896251
 20
151.5445300236914
 30
0.0
 11
378.8009923141205
 21
151.5445300236913
 31
0.0
  0
ARC
  5
6CD
330
682
100
AcDbEntity
  8
BEMAßUNG
 62
     0
370
    -2
100
AcDbCircle
 10
354.9566878484782
 20
151.5445300236914
 30
0.0
 40
22.59430446564225
100
AcDbArc
 50
337.294731974066
 51
350.0
  0
LINE
  5
6CE
330
682
100
AcDbEntity
  8
BEMAßUNG
 62
     0
370
    -2
100
AcDbLine
 10
375.79999254588
 20
142.8233349463289
 30
0.0
 11
373.548379178952
 21
137.4420697583225
 31
0.0
  0
ARC
  5
6CF
330
682
100
AcDbEntity
  8
BEMAßUNG
 62
     0
370
    -2
100
AcDbCircle
 10
354.9566878484782
 20
151.5445300236914
 30
0.0
 40
22.59430446564225
100
AcDbArc
 50
337.3142703840112
 51
343.6571351920056
  0
ARC
  5
6D0
330
682
100
AcDbEntity
  8
BEMAßUNG
 62
     0
370
    -2
100
AcDbCircle
 10
354.9566878484782
 20
151.5445300236914
 30
0.0
 40
22.59430446564225
100
AcDbArc
 50
6.342864807994397
 51
12.68572961598879
  0
ARC
  5
6D1
330
682
100
AcDbEntity
  8
BEMAßUNG
 62
     0
370
    -2
100
AcDbCircle
 10
354.9566878484782
 20
151.5445300236914
 30
0.0
 40
22.59430446564225
100
AcDbArc
 50
350.0
 51
360.0
  0
SOLID
  5
6D2
330
682
100
AcDbEntity
  8
BEMAßUNG
 62
     0
100
AcDbTrace
 10
376.2323652529798
 20
145.2817825579923
 30
0.0
 11
377.0437757840454
 21
145.0918947107761
 31
0.0
 12
377.207734060161
 22
147.6210702275808
 32
0.0
 13
377.207734060161
 23
147.6210702275808
 33
0.0
  0
SOLID
  5
6D3
330
682
100
AcDbEntity
  8
BEMAßUNG
 62
     0
100
AcDbTrace
 10
377.8287116521243
 20
154.0637527372302
 30
0.0
 11
376.996654591625
 21
154.0176496731482
 31
0.0
 12
377.5509923141205
 22
151.5445300236913
 32
0.0
 13
377.5509923141205
 23
151.5445300236913
 33
0.0
  0
MTEXT
  5
6D4
330
682
100
AcDbEntity
  8
BEMAßUNG
 62
     0
100
AcDbMText
 10
372.9444934805568
 20
140.8564352202668
 30
0.0
 40
2.5
 41
0.0
 71
     5
 72
     1
  1
10°
 11
0.3859908629019442
 21
0.9225026036582296
 31
0.0
 73
     1
 44
1.0
1001
ACAD
1000
MTEXTBEGIN
1070
    73
1070
     1
1070
    44
1040
1.0
1070
    74
1070
     0
1000
MTEXTEND
  0
POINT
  5
6D5
330
682
100
AcDbEntity
  8
DEFPOINTS
 62
     0
100
AcDbPoint
 10
377.5127663269938
 20
150.2307880561854
 30
0.0
  0
POINT
  5
6D6
330
682
100
AcDbEntity
  8
DEFPOINTS
 62
     0
100
AcDbPoint
 10
354.9566878484782
 20
151.5445300236914
 30
0.0
  0
POINT
  5
6D7
330
682
100
AcDbEntity
  8
DEFPOINTS
 62
     0
100
AcDbPoint
 10
361.1928423896251
 20
151.5445300236914
 30
0.0
  0
POINT
  5
6D8
330
682
100
AcDbEntity
  8
DEFPOINTS
 62
     0
100
AcDbPoint
 10
331.9428423896251
 20
151.5445300236914
 30
0.0
  0
POINT
  5
6D9
330
682
100
AcDbEntity
  8
DEFPOINTS
 62
     0
100
AcDbPoint
 10
337.9428423896251
 20
154.5445300236914
 30
0.0
  0
ENDBLK
  5
693
330
682
100
AcDbEntity
  8
0
100
AcDbBlockEnd
  0
BLOCK
  5
69F
330
695
100
AcDbEntity
  8
0
100
AcDbBlockBegin
  2
*D23
 70
     1
 10
0.0
 20
0.0
 30
0.0
  3
*D23
  1

  0
LINE
  5
730
330
695
100
AcDbEntity
  8
BEMAßUNG
 62
     0
370
    -2
100
AcDbLine
 10
319.4428423896252
 20
169.1695300236914
 30
0.0
 11
319.4428423896252
 21
176.9109931440007
 31
0.0
  0
LINE
  5
731
330
695
100
AcDbEntity
  8
BEMAßUNG
 62
     0
370
    -2
100
AcDbLine
 10
344.4428423896251
 20
169.1695300236914
 30
0.0
 11
344.4428423896251
 21
176.9109931440007
 31
0.0
  0
LINE
  5
732
330
695
100
AcDbEntity
  8
BEMAßUNG
 62
     0
370
    -2
100
AcDbLine
 10
321.9428423896252
 20
175.6609931440007
 30
0.0
 11
341.9428423896251
 21
175.6609931440007
 31
0.0
  0
SOLID
  5
733
330
695
100
AcDbEntity
  8
BEMAßUNG
 62
     0
100
AcDbTrace
 10
321.9428423896252
 20
176.0776598106674
 30
0.0
 11
321.9428423896252
 21
175.2443264773341
 31
0.0
 12
319.4428423896252
 22
175.6609931440007
 32
0.0
 13
319.4428423896252
 23
175.6609931440007
 33
0.0
  0
SOLID
  5
734
330
695
100
AcDbEntity
  8
BEMAßUNG
 62
     0
100
AcDbTrace
 10
341.9428423896251
 20
176.0776598106674
 30
0.0
 11
341.9428423896251
 21
175.2443264773341
 31
0.0
 12
344.4428423896251
 22
175.6609931440007
 32
0.0
 13
344.4428423896251
 23
175.6609931440007
 33
0.0
  0
MTEXT
  5
735
330
695
100
AcDbEntity
  8
BEMAßUNG
 62
     0
100
AcDbMText
 10
331.9428423896252
 20
177.5359931440007
 30
0.0
 40
2.5
 41
0.0
 71
     5
 72
     1
  1
%%c25
 73
     1
 44
1.0
1001
ACAD
1000
MTEXTBEGIN
1070
    73
1070
     1
1070
    44
1040
1.0
1070
    74
1070
     0
1000
MTEXTEND
  0
POINT
  5
736
330
695
100
AcDbEntity
  8
DEFPOINTS
 62
     0
100
AcDbPoint
 10
319.4428423896252
 20
168.5445300236914
 30
0.0
  0
POINT
  5
737
330
695
100
AcDbEntity
  8
DEFPOINTS
 62
     0
100
AcDbPoint
 10
344.4428423896251
 20
168.5445300236914
 30
0.0
  0
POINT
  5
738
330
695
100
AcDbEntity
  8
DEFPOINTS
 62
     0
100
AcDbPoint
 10
344.4428423896251
 20
175.6609931440007
 30
0.0
  0
ENDBLK
  5
6A0
330
695
100
AcDbEntity
  8
0
100
AcDbBlockEnd
  0
BLOCK
  5
6AC
330
6A2
100
AcDbEntity
  8
0
100
AcDbBlockBegin
  2
*D24
 70
     1
 10
0.0
 20
0.0
 30
0.0
  3
*D24
  1

  0
LINE
  5
727
330
6A2
100
AcDbEntity
  8
BEMAßUNG
 62
     0
370
    -2
100
AcDbLine
 10
311.4428423896252
 20
172.1695300236914
 30
0.0
 11
311.4428423896252
 21
181.4626224552014
 31
0.0
  0
LINE
  5
728
330
6A2
100
AcDbEntity
  8
BEMAßUNG
 62
     0
370
    -2
100
AcDbLine
 10
352.4428423896252
 20
172.1695300236914
 30
0.0
 11
352.4428423896252
 21
181.4626224552014
 31
0.0
  0
LINE
  5
729
330
6A2
100
AcDbEntity
  8
BEMAßUNG
 62
     0
370
    -2
100
AcDbLine
 10
313.9428423896252
 20
180.2126224552014
 30
0.0
 11
349.9428423896252
 21
180.2126224552014
 31
0.0
  0
SOLID
  5
72A
330
6A2
100
AcDbEntity
  8
BEMAßUNG
 62
     0
100
AcDbTrace
 10
313.9428423896252
 20
180.629289121868
 30
0.0
 11
313.9428423896252
 21
179.7959557885347
 31
0.0
 12
311.4428423896252
 22
180.2126224552014
 32
0.0
 13
311.4428423896252
 23
180.2126224552014
 33
0.0
  0
SOLID
  5
72B
330
6A2
100
AcDbEntity
  8
BEMAßUNG
 62
     0
100
AcDbTrace
 10
349.9428423896252
 20
180.629289121868
 30
0.0
 11
349.9428423896252
 21
179.7959557885347
 31
0.0
 12
352.4428423896252
 22
180.2126224552014
 32
0.0
 13
352.4428423896252
 23
180.2126224552014
 33
0.0
  0
MTEXT
  5
72C
330
6A2
100
AcDbEntity
  8
BEMAßUNG
 62
     0
100
AcDbMText
 10
331.9428423896252
 20
182.0876224552014
 30
0.0
 40
2.5
 41
0.0
 71
     5
 72
     1
  1
%%c41
 73
     1
 44
1.0
1001
ACAD
1000
MTEXTBEGIN
1070
    73
1070
     1
1070
    44
1040
1.0
1070
    74
1070
     0
1000
MTEXTEND
  0
POINT
  5
72D
330
6A2
100
AcDbEntity
  8
DEFPOINTS
 62
     0
100
AcDbPoint
 10
311.4428423896252
 20
171.5445300236914
 30
0.0
  0
POINT
  5
72E
330
6A2
100
AcDbEntity
  8
DEFPOINTS
 62
     0
100
AcDbPoint
 10
352.4428423896252
 20
171.5445300236914
 30
0.0
  0
POINT
  5
72F
330
6A2
100
AcDbEntity
  8
DEFPOINTS
 62
     0
100
AcDbPoint
 10
352.4428423896252
 20
180.2126224552014
 30
0.0
  0
ENDBLK
  5
6AD
330
6A2
100
AcDbEntity
  8
0
100
AcDbBlockEnd
  0
BLOCK
  5
86D
330
86B
100
AcDbEntity
  8
0
100
AcDbBlockBegin
  2
GENAXEH
 70
     0
 10
0.0
 20
0.0
 30
0.0
  3
GENAXEH
  1

  0
LINE
  5
86C
330
86B
100
AcDbEntity
  8
0
100
AcDbLine
 10
-1.0
 20
0.0
 30
0.0
 11
1.0
 21
0.0
 31
0.0
  0
ENDBLK
  5
86E
330
86B
100
AcDbEntity
  8
0
100
AcDbBlockEnd
  0
ENDSEC
  0
SECTION
  2
ENTITIES
  0
LINE
  5
415
102
{ACAD_REACTORS
330
427
330
42B
102
}
330
1F
100
AcDbEntity
  8
ACHSEN
100
AcDbLine
 10
199.9343528533462
 20
101.5457143991213
 30
0.0
 11
264.912569428892
 21
101.5457143991213
 31
0.0
  0
LINE
  5
416
330
1F
100
AcDbEntity
  8
ACHSEN
100
AcDbLine
 10
232.4234611411191
 20
175.5142070685831
 30
0.0
 11
232.4234611411191
 21
69.0566061113484
 31
0.0
  0
CIRCLE
  5
417
102
{ACAD_REACTORS
330
427
330
42B
102
}
330
1F
100
AcDbEntity
  8
Linien
100
AcDbCircle
 10
232.4234611411191
 20
101.5457143991213
 30
0.0
 40
29.25
  0
CIRCLE
  5
418
330
1F
100
AcDbEntity
  8
Linien
100
AcDbCircle
 10
232.4234611411191
 20
101.5457143991213
 30
0.0
 40
12.5
  0
CIRCLE
  5
419
102
{ACAD_REACTORS
330
427
102
}
330
1F
100
AcDbEntity
  8
BEMAßUNG
100
AcDbCircle
 10
232.4234611411191
 20
101.5457143991213
 30
0.0
 40
20.5
  0
CIRCLE
  5
41A
330
1F
100
AcDbEntity
  8
Linien
100
AcDbCircle
 10
232.4234611411191
 20
101.5457143991213
 30
0.0
 40
6.0
  0
LINE
  5
41B
102
{ACAD_REACTORS
330
427
102
}
330
1F
100
AcDbEntity
  8
Linien
100
AcDbLine
 10
203.1734611411191
 20
101.5457143991213
 30
0.0
 11
227.0815807992388
 21
112.8467902068942
 31
0.0
  0
LINE
  5
41C
102
{ACAD_REACTORS
330
427
330
42B
102
}
330
1F
100
AcDbEntity
  8
Linien
100
AcDbLine
 10
203.2543595296365
 20
99.3717753063677
 30
0.0
 11
217.3156751510326
 21
106.0183872552272
 31
0.0
  0
ARC
  5
41D
330
1F
100
AcDbEntity
  8
Linien
100
AcDbCircle
 10
218.1703760057335
 20
104.2102151259835
 30
0.0
 40
2.0
100
AcDbArc
 50
349.4112311929985
 51
115.299528745804
  0
HATCH
  5
427
330
1F
100
AcDbEntity
  8
Linien
100
AcDbHatch
 10
0.0
 20
0.0
 30
0.0
210
0.0
220
0.0
230
1.0
  2
SOLID
 70
     1
 71
     1
 91
        2
 92
        7
 72
     1
 73
     1
 93
        4
 10
212.0182038869649
 20
103.5143373675398
 42
-0.0295121008388214
 10
212.3919209790707
 20
105.9031676388293
 42
0.0
 10
203.1734611411191
 20
101.5457143991213
 42
0.0
 10
207.8534611411191
 20
101.5457143991213
 42
0.0
 97
        4
330
419
330
41B
330
415
330
41C
 92
        7
 72
     1
 73
     1
 93
        3
 10
207.8534611411191
 20
101.5457143991213
 42
0.0
 10
203.1734611411191
 20
101.5457143991213
 42
0.0185999693534854
 10
203.2543595296365
 20
99.37177530636768
 42
0.0
 97
        3
330
415
330
417
330
41C
 75
     0
 76
     1
 47
0.1767183682531428
 98
        2
 10
208.1034551873621
 20
103.1016981800537
 10
203.6817341974521
 20
100.4509220531788
  0
HATCH
  5
42B
330
1F
100
AcDbEntity
  8
Linien
100
AcDbHatch
 10
0.0
 20
0.0
 30
0.0
210
0.0
220
0.0
230
1.0
  2
SOLID
 70
     1
 71
     1
 91
        1
 92
        7
 72
     1
 73
     1
 93
        3
 10
207.8534611411192
 20
101.5457143991213
 42
0.0
 10
203.1734611411191
 20
101.5457143991213
 42
0.0185999693534855
 10
203.2543595296365
 20
99.37177530636768
 42
0.0
 97
        3
330
415
330
417
330
41C
 75
     0
 76
     1
 47
0.1767183682531428
 98
        1
 10
204.2123406292266
 20
100.8043589503414
  0
ARC
  5
42C
330
1F
100
AcDbEntity
  8
Linien
100
AcDbCircle
 10
232.4234611411191
 20
101.5457143991213
 30
0.0
 40
13.5
100
AcDbArc
 50
137.4911353120772
 51
162.313654531249
  0
LINE
  5
42D
330
1F
100
AcDbEntity
  8
Linien
100
AcDbLine
 10
219.7215968159825
 20
75.19756185163095
 30
0.0
 11
220.9961198298711
 21
90.69832436482073
 31
0.0
  0
HATCH
  5
42E
330
1F
100
AcDbEntity
  8
Linien
100
AcDbHatch
 10
0.0
 20
0.0
 30
0.0
210
0.0
220
0.0
230
1.0
  2
SOLID
 70
     1
 71
     0
 91
        2
 92
        7
 72
     1
 73
     1
 93
        4
 10
220.5159550129179
 20
84.8585547304763
 42
-0.0295121008388214
 10
218.6340258587049
 20
86.37661836171318
 42
0.0
 10
217.7984611411191
 20
76.2144713384265
 42
0.0
 10
220.1384611411191
 20
80.26747022813768
 42
0.0
 97
        0
 92
        7
 72
     1
 73
     1
 93
        3
 10
220.1384611411191
 20
80.26747022813765
 42
0.0
 10
217.7984611411191
 20
76.21447133842645
 42
0.0185999693534854
 10
219.7215968159825
 20
75.19756185163095
 42
0.0
 97
        0
 75
     0
 76
     1
 47
0.1767183682531428
 98
        2
 10
218.9159366820766
 20
81.26196331344511
 10
219.0007156527406
 20
76.10725254429872
  0
LINE
  5
42F
330
1F
100
AcDbEntity
  8
Linien
100
AcDbLine
 10
217.7984611411191
 20
76.21447133842645
 30
0.0
 11
219.9655022305538
 21
102.5700482229627
 31
0.0
  0
HATCH
  5
430
330
1F
100
AcDbEntity
  8
Linien
100
AcDbHatch
 10
0.0
 20
0.0
 30
0.0
210
0.0
220
0.0
230
1.0
  2
SOLID
 70
     1
 71
     0
 91
        1
 92
        7
 72
     1
 73
     1
 93
        3
 10
220.1384611411191
 20
80.26747022813774
 42
0.0
 10
217.7984611411191
 20
76.21447133842647
 42
0.0185999693534855
 10
219.7215968159825
 20
75.19756185163095
 42
0.0
 97
        0
 75
     0
 76
     1
 47
0.1767183682531428
 98
        1
 10
218.9599335370502
 20
76.74348964220815
  0
ARC
  5
431
330
1F
100
AcDbEntity
  8
Linien
100
AcDbCircle
 10
222.9893932555615
 20
90.53443095300606
 30
0.0
 40
2.0
100
AcDbArc
 50
49.41123119299846
 51
175.299528745804
  0
ARC
  5
432
330
1F
100
AcDbEntity
  8
Linien
100
AcDbCircle
 10
232.4234611411192
 20
101.5457143991213
 30
0.0
 40
13.5
100
AcDbArc
 50
197.4911353120772
 51
222.313654531249
  0
LINE
  5
433
330
1F
100
AcDbEntity
  8
Linien
100
AcDbLine
 10
248.8906984274651
 20
77.37150094438447
 30
0.0
 11
236.1039058199575
 21
86.2256515087148
 31
0.0
  0
HATCH
  5
434
330
1F
100
AcDbEntity
  8
Linien
100
AcDbHatch
 10
0.0
 20
0.0
 30
0.0
210
0.0
220
0.0
230
1.0
  2
SOLID
 70
     1
 71
     0
 91
        2
 92
        7
 72
     1
 73
     1
 93
        4
 10
240.9212122670722
 20
82.88993176205767
 42
-0.0295121008388214
 10
238.6655660207533
 20
82.0191651220051
 42
0.0
 10
247.0484611411191
 20
76.21447133842645
 42
0.0
 10
244.7084611411191
 20
80.2674702281376
 42
0.0
 97
        0
 92
        7
 72
     1
 73
     1
 93
        3
 10
244.7084611411191
 20
80.26747022813763
 42
0.0
 10
247.0484611411191
 20
76.21447133842645
 42
0.0185999693534854
 10
248.8906984274651
 20
77.37150094438447
 42
0.0
 97
        0
 75
     0
 76
     1
 47
0.1767183682531428
 98
        2
 10
243.2359426358336
 20
79.70597953251268
 10
247.7424425964076
 20
77.20204489024121
  0
LINE
  5
435
330
1F
100
AcDbEntity
  8
Linien
100
AcDbLine
 10
247.0484611411191
 20
76.21447133842645
 30
0.0
 11
225.3073825724341
 21
91.26897241518969
 31
0.0
  0
HATCH
  5
436
330
1F
100
AcDbEntity
  8
Linien
100
AcDbHatch
 10
0.0
 20
0.0
 30
0.0
210
0.0
220
0.0
230
1.0
  2
SOLID
 70
     1
 71
     0
 91
        1
 92
        7
 72
     1
 73
     1
 93
        3
 10
244.708461141119
 20
80.2674702281377
 42
0.0
 10
247.0484611411191
 20
76.21447133842643
 42
0.0185999693534855
 10
248.8906984274651
 20
77.37150094438447
 42
0.0
 97
        0
 75
     0
 76
     1
 47
0.1767183682531428
 98
        1
 10
247.1710540489428
 20
77.48484509098799
  0
ARC
  5
437
330
1F
100
AcDbEntity
  8
Linien
100
AcDbCircle
 10
237.2424783909472
 20
87.86993022614391
 30
0.0
 40
2.0
100
AcDbArc
 50
109.4112311929985
 51
235.299528745804
  0
ARC
  5
438
330
1F
100
AcDbEntity
  8
Linien
100
AcDbCircle
 10
232.4234611411192
 20
101.5457143991213
 30
0.0
 40
13.5
100
AcDbArc
 50
257.4911353120772
 51
282.3136545312491
  0
LINE
  5
439
330
1F
100
AcDbEntity
  8
Linien
100
AcDbLine
 10
261.5925627526017
 20
103.7196534918748
 30
0.0
 11
247.5312471312056
 21
97.07304154301535
 31
0.0
  0
HATCH
  5
43A
330
1F
100
AcDbEntity
  8
Linien
100
AcDbHatch
 10
0.0
 20
0.0
 30
0.0
210
0.0
220
0.0
230
1.0
  2
SOLID
 70
     1
 71
     0
 91
        2
 92
        7
 72
     1
 73
     1
 93
        4
 10
252.8287183952734
 20
99.57709143070266
 42
-0.0295121008388214
 10
252.4550013031675
 20
97.18826115941318
 42
0.0
 10
261.6734611411191
 20
101.5457143991213
 42
0.0
 10
256.993461141119
 20
101.5457143991212
 42
0.0
 97
        0
 92
        7
 72
     1
 73
     1
 93
        3
 10
256.993461141119
 20
101.5457143991213
 42
0.0
 10
261.6734611411191
 20
101.5457143991213
 42
0.0185999693534854
 10
261.5925627526017
 20
103.7196534918748
 42
0.0
 97
        0
 75
     0
 76
     1
 47
0.1767183682531428
 98
        2
 10
256.7434670948761
 20
99.98973061818885
 10
261.1651880847861
 20
102.6405067450637
  0
LINE
  5
43B
330
1F
100
AcDbEntity
  8
Linien
100
AcDbLine
 10
261.6734611411191
 20
101.5457143991213
 30
0.0
 11
237.7653414829994
 21
90.24463859134826
 31
0.0
  0
HATCH
  5
43C
330
1F
100
AcDbEntity
  8
Linien
100
AcDbHatch
 10
0.0
 20
0.0
 30
0.0
210
0.0
220
0.0
230
1.0
  2
SOLID
 70
     1
 71
     0
 91
        1
 92
        7
 72
     1
 73
     1
 93
        3
 10
256.993461141119
 20
101.5457143991212
 42
0.0
 10
261.6734611411191
 20
101.5457143991212
 42
0.0185999693534855
 10
261.5925627526017
 20
103.7196534918748
 42
0.0
 97
        0
 75
     0
 76
     1
 47
0.1767183682531428
 98
        1
 10
260.6345816530116
 20
102.2870698479011
  0
ARC
  5
43D
330
1F
100
AcDbEntity
  8
Linien
100
AcDbCircle
 10
246.6765462765047
 20
98.88121367225902
 30
0.0
 40
2.0
100
AcDbArc
 50
169.4112311929985
 51
295.2995287458041
  0
ARC
  5
43E
330
1F
100
AcDbEntity
  8
Linien
100
AcDbCircle
 10
232.4234611411191
 20
101.5457143991213
 30
0.0
 40
13.5
100
AcDbArc
 50
317.4911353120772
 51
342.313654531249
  0
LINE
  5
43F
330
1F
100
AcDbEntity
  8
Linien
100
AcDbLine
 10
245.1253254662558
 20
127.8938669466116
 30
0.0
 11
243.8508024523672
 21
112.3931044334218
 31
0.0
  0
HATCH
  5
440
330
1F
100
AcDbEntity
  8
Linien
100
AcDbHatch
 10
0.0
 20
0.0
 30
0.0
210
0.0
220
0.0
230
1.0
  2
SOLID
 70
     1
 71
     0
 91
        2
 92
        7
 72
     1
 73
     1
 93
        4
 10
244.3309672693203
 20
118.2328740677662
 42
-0.0295121008388214
 10
246.2128964235333
 20
116.7148104365294
 42
0.0
 10
247.0484611411191
 20
126.8769574598161
 42
0.0
 10
244.7084611411191
 20
122.8239585701049
 42
0.0
 97
        0
 92
        7
 72
     1
 73
     1
 93
        3
 10
244.7084611411191
 20
122.8239585701049
 42
0.0
 10
247.0484611411192
 20
126.8769574598161
 42
0.0185999693534854
 10
245.1253254662558
 20
127.8938669466116
 42
0.0
 97
        0
 75
     0
 76
     1
 47
0.1767183682531428
 98
        2
 10
245.9309856001616
 20
121.8294654847974
 10
245.8462066294977
 20
126.9841762539438
  0
LINE
  5
441
330
1F
100
AcDbEntity
  8
Linien
100
AcDbLine
 10
247.0484611411192
 20
126.8769574598161
 30
0.0
 11
244.8814200516845
 21
100.5213805752798
 31
0.0
  0
HATCH
  5
442
330
1F
100
AcDbEntity
  8
Linien
100
AcDbHatch
 10
0.0
 20
0.0
 30
0.0
210
0.0
220
0.0
230
1.0
  2
SOLID
 70
     1
 71
     0
 91
        1
 92
        7
 72
     1
 73
     1
 93
        3
 10
244.7084611411191
 20
122.8239585701048
 42
0.0
 10
247.0484611411192
 20
126.8769574598161
 42
0.0185999693534855
 10
245.1253254662558
 20
127.8938669466116
 42
0.0
 97
        0
 75
     0
 76
     1
 47
0.1767183682531428
 98
        1
 10
245.886988745188
 20
126.3479391560344
  0
ARC
  5
443
330
1F
100
AcDbEntity
  8
Linien
100
AcDbCircle
 10
241.8575290266767
 20
112.5569978452364
 30
0.0
 40
2.0
100
AcDbArc
 50
229.4112311929985
 51
355.299528745804
  0
ARC
  5
444
330
1F
100
AcDbEntity
  8
Linien
100
AcDbCircle
 10
232.4234611411191
 20
101.5457143991213
 30
0.0
 40
13.5
100
AcDbArc
 50
17.49113531207723
 51
42.31365453124903
  0
LINE
  5
445
330
1F
100
AcDbEntity
  8
Linien
100
AcDbLine
 10
215.9562238547731
 20
125.719927853858
 30
0.0
 11
228.7430164622807
 21
116.8657772895277
 31
0.0
  0
HATCH
  5
446
330
1F
100
AcDbEntity
  8
Linien
100
AcDbHatch
 10
0.0
 20
0.0
 30
0.0
210
0.0
220
0.0
230
1.0
  2
SOLID
 70
     1
 71
     0
 91
        2
 92
        7
 72
     1
 73
     1
 93
        4
 10
223.9257100151661
 20
120.2014970361848
 42
-0.0295121008388214
 10
226.1813562614849
 20
121.0722636762374
 42
0.0
 10
217.7984611411191
 20
126.876957459816
 42
0.0
 10
220.1384611411192
 20
122.8239585701049
 42
0.0
 97
        0
 92
        7
 72
     1
 73
     1
 93
        3
 10
220.1384611411191
 20
122.8239585701049
 42
0.0
 10
217.7984611411191
 20
126.8769574598161
 42
0.0185999693534854
 10
215.9562238547731
 20
125.719927853858
 42
0.0
 97
        0
 75
     0
 76
     1
 47
0.1767183682531428
 98
        2
 10
221.6109796464047
 20
123.3854492657298
 10
217.1044796858307
 20
125.8893839080013
  0
LINE
  5
447
330
1F
100
AcDbEntity
  8
Linien
100
AcDbLine
 10
217.7984611411191
 20
126.8769574598161
 30
0.0
 11
239.5395397098041
 21
111.8224563830528
 31
0.0
  0
HATCH
  5
448
330
1F
100
AcDbEntity
  8
Linien
100
AcDbHatch
 10
0.0
 20
0.0
 30
0.0
210
0.0
220
0.0
230
1.0
  2
SOLID
 70
     1
 71
     0
 91
        1
 92
        7
 72
     1
 73
     1
 93
        3
 10
220.1384611411192
 20
122.8239585701048
 42
0.0
 10
217.7984611411191
 20
126.8769574598161
 42
0.0185999693534855
 10
215.9562238547731
 20
125.719927853858
 42
0.0
 97
        0
 75
     0
 76
     1
 47
0.1767183682531428
 98
        1
 10
217.6758682332954
 20
125.6065837072545
  0
ARC
  5
449
330
1F
100
AcDbEntity
  8
Linien
100
AcDbCircle
 10
227.6044438912911
 20
115.2214985720987
 30
0.0
 40
2.0
100
AcDbArc
 50
289.4112311929985
 51
55.29952874580399
  0
ARC
  5
44A
330
1F
100
AcDbEntity
  8
Linien
100
AcDbCircle
 10
232.4234611411191
 20
101.5457143991212
 30
0.0
 40
13.5
100
AcDbArc
 50
77.4911353120772
 51
102.313654531249
  0
LINE
  5
44C
330
1F
100
AcDbEntity
  8
Hilfslinien
100
AcDbLine
 10
217.7984611411191
 20
126.8769574598161
 30
0.0
 11
232.4234611411191
 21
101.5457143991213
 31
0.0
  0
LINE
  5
44D
330
1F
100
AcDbEntity
  8
Hilfslinien
100
AcDbLine
 10
247.0484611411192
 20
126.8769574598161
 30
0.0
 11
232.4234611411191
 21
101.5457143991213
 31
0.0
  0
LINE
  5
44F
330
1F
100
AcDbEntity
  8
Hilfslinien
100
AcDbLine
 10
247.0484611411191
 20
76.21447133842645
 30
0.0
 11
232.4234611411191
 21
101.5457143991213
 31
0.0
  0
LINE
  5
450
330
1F
100
AcDbEntity
  8
Hilfslinien
100
AcDbLine
 10
217.7984611411191
 20
76.21447133842645
 30
0.0
 11
232.4234611411191
 21
101.5457143991213
 31
0.0
  0
DIMENSION
  5
451
330
1F
100
AcDbEntity
  8
BEMAßUNG
100
AcDbDimension
  2
*D1
 10
368.3105044114977
 20
101.5457143991213
 30
0.0
 11
198.2021533704944
 21
121.3033956525125
 31
0.0
 70
    34
 71
     5
 42
1.047197551196598
  3
ISO-25
100
AcDb2LineAngularDimension
 13
217.7984611411191
 23
126.8769574598161
 33
0.0
 14
232.4234611411191
 24
101.5457143991213
 34
0.0
 15
126.5448076864607
 25
101.5457143991213
 35
0.0
 16
203.5892706058145
 26
125.7404730425908
 36
0.0
  0
DIMENSION
  5
45F
330
1F
100
AcDbEntity
  8
BEMAßUNG
100
AcDbDimension
  2
*D2
 10
238.9596414971446
 20
138.6142352219907
 30
0.0
 11
232.4234611411192
 21
141.0610769059037
 31
0.0
 70
    37
 71
     5
 42
1.047197551196599
  3
ISO-25
100
AcDb3PointAngularDimension
 13
217.7984611411191
 23
126.8769574598161
 33
0.0
 14
247.0484611411192
 24
126.876957459816
 34
0.0
 15
232.4234611411191
 25
101.5457143991213
 35
0.0
1001
ACAD
1000
DSTYLE
1002
{
1070
   279
1070
     1
1002
}
  0
DIMENSION
  5
46D
330
1F
100
AcDbEntity
  8
BEMAßUNG
100
AcDbDimension
  2
*D3
 10
267.7938320324492
 20
114.4194765785211
 30
0.0
 11
266.644768911744
 21
121.3033956525125
 31
0.0
 70
    37
 71
     5
 42
1.047197551196595
  3
ISO-25
100
AcDb3PointAngularDimension
 13
247.0484611411192
 23
126.876957459816
 33
0.0
 14
261.6734611411191
 24
101.5457143991212
 34
0.0
 15
232.4234611411191
 25
101.5457143991213
 35
0.0
1001
ACAD
1000
DSTYLE
1002
{
1070
   279
1070
     1
1002
}
  0
DIMENSION
  5
47B
330
1F
100
AcDbEntity
  8
BEMAßUNG
100
AcDbDimension
  2
*D4
 10
261.2576516764237
 20
77.3509557556517
 30
0.0
 11
263.3971736475522
 21
83.66303314573002
 31
0.0
 70
    37
 71
     5
 42
1.047197551196596
  3
ISO-25
100
AcDb3PointAngularDimension
 13
261.6734611411191
 23
101.5457143991212
 33
0.0
 14
247.0484611411191
 24
76.21447133842643
 34
0.0
 15
232.4234611411191
 25
101.5457143991213
 35
0.0
1001
ACAD
1000
DSTYLE
1002
{
1070
   279
1070
     1
1002
}
  0
DIMENSION
  5
489
330
1F
100
AcDbEntity
  8
BEMAßUNG
100
AcDbDimension
  2
*D5
 10
225.8872807850937
 20
64.47719357625183
 30
0.0
 11
232.4234611411191
 21
65.78035189233876
 31
0.0
 70
    37
 71
     5
 42
1.047197551196596
  3
ISO-25
100
AcDb3PointAngularDimension
 13
247.0484611411191
 23
76.21447133842643
 33
0.0
 14
217.7984611411191
 24
76.21447133842642
 34
0.0
 15
232.4234611411191
 25
101.5457143991213
 35
0.0
1001
ACAD
1000
DSTYLE
1002
{
1070
   279
1070
     1
1002
}
  0
DIMENSION
  5
497
330
1F
100
AcDbEntity
  8
BEMAßUNG
100
AcDbDimension
  2
*D6
 10
197.053090249789
 20
88.67195221972139
 30
0.0
 11
201.449748634686
 21
83.66303314573002
 31
0.0
 70
    37
 71
     5
 42
1.047197551196599
  3
ISO-25
100
AcDb3PointAngularDimension
 13
217.7984611411191
 23
76.21447133842642
 33
0.0
 14
203.1734611411191
 24
101.5457143991213
 34
0.0
 15
232.4234611411191
 25
101.5457143991213
 35
0.0
1001
ACAD
1000
DSTYLE
1002
{
1070
   279
1070
     1
1002
}
  0
DIMENSION
  5
4B7
330
1F
100
AcDbEntity
  8
BEMAßUNG
100
AcDbDimension
  2
*D7
 10
184.5276243204827
 20
90.54313600272962
 30
0.0
 11
188.9563610282517
 21
85.48230745221504
 31
0.0
 70
    33
 71
     5
 42
2.000027329815296
  3
ISO-25
100
AcDbAlignedDimension
 13
187.3279907151138
 23
94.05575429122565
 33
0.0
 14
188.1732387886742
 24
92.24311394792792
 34
0.0
  0
LINE
  5
4E7
330
1F
100
AcDbEntity
  8
BEMAßUNG
100
AcDbLine
 10
203.2543595296365
 20
99.37177530636766
 30
0.0
 11
187.6067964217763
 21
91.97897753434002
 31
0.0
  0
DIMENSION
  5
4F4
330
1F
100
AcDbEntity
  8
BEMAßUNG
100
AcDbDimension
  2
*D8
 10
227.0815807992388
 20
112.8467902068942
 30
0.0
 11
189.0639177423762
 21
98.37898810811735
 31
0.0
 70
    34
 71
     5
 42
0.4415600758172379
  3
ISO-25
100
AcDb2LineAngularDimension
 13
126.5448076864607
 23
101.5457143991213
 33
0.0
 14
368.3105044114977
 24
101.5457143991213
 34
0.0
 15
203.1734611411191
 25
101.5457143991213
 35
0.0
 16
187.0145426199996
 26
99.15001149194365
 36
0.0
  0
DIMENSION
  5
504
330
1F
100
AcDbEntity
  8
BEMAßUNG
100
AcDbDimension
  2
*D9
 10
261.6734611411191
 20
49.26927982666467
 30
0.0
 11
232.4234611411191
 21
51.35261315999801
 31
0.0
 70
    32
  1
%%c<>
 71
     5
 42
58.5
  3
ISO-25
100
AcDbAlignedDimension
 13
203.1734611411191
 23
101.5457143991213
 33
0.0
 14
261.6734611411191
 24
101.5457143991212
 34
0.0
100
AcDbRotatedDimension
  0
DIMENSION
  5
511
330
1F
100
AcDbEntity
  8
BEMAßUNG
100
AcDbDimension
  2
*D10
 10
252.9234611411191
 20
56.78675677155474
 30
0.0
 11
232.4234611411191
 21
58.66175677155474
 31
0.0
 70
    32
  1
%%c<>
 71
     5
 42
41.0
  3
ISO-25
100
AcDbAlignedDimension
 13
211.9234611411191
 23
101.5457143991213
 33
0.0
 14
252.9234611411191
 24
101.5457143991213
 34
0.0
100
AcDbRotatedDimension
  0
LINE
  5
534
330
1F
100
AcDbEntity
  8
Linien
100
AcDbLine
 10
203.1734611411191
 20
151.5445300236914
 30
0.0
 11
232.4234611411191
 21
151.5445300236914
 31
0.0
  0
LINE
  5
53B
330
1F
100
AcDbEntity
  8
Linien
100
AcDbLine
 10
211.9234611411191
 20
171.5445300236914
 30
0.0
 11
203.1734611411191
 21
168.5445300236914
 31
0.0
  0
LINE
  5
53D
330
1F
100
AcDbEntity
  8
Unsichtbare
 48
0.2
100
AcDbLine
 10
226.4234611411191
 20
168.5445300236914
 30
0.0
 11
226.4234611411191
 21
154.5445300236914
 31
0.0
  0
LINE
  5
53E
330
1F
100
AcDbEntity
  8
Linien
100
AcDbLine
 10
203.1734611411191
 20
168.5445300236914
 30
0.0
 11
203.1734611411191
 21
151.5445300236914
 31
0.0
  0
LINE
  5
53F
330
1F
100
AcDbEntity
  8
Linien
100
AcDbLine
 10
203.1734611411191
 20
154.5445300236914
 30
0.0
 11
232.4234611411191
 21
154.5445300236914
 31
0.0
  0
LINE
  5
540
330
1F
100
AcDbEntity
  8
Unsichtbare
 48
0.2
100
AcDbLine
 10
209.409615682266
 20
151.5445300236914
 30
0.0
 11
226.4234611411191
 21
154.5445300236914
 31
0.0
  0
LINE
  5
541
330
1F
100
AcDbEntity
  8
Linien
100
AcDbLine
 10
203.1734611411191
 20
154.5445300236914
 30
0.0
 11
216.7551079043902
 21
157.4313981615091
 31
0.0
  0
LINE
  5
545
330
1F
100
AcDbEntity
  8
Linien
100
AcDbLine
 10
219.9234611411191
 20
168.5445300236914
 30
0.0
 11
219.9234611411192
 21
161.3439885644444
 31
0.0
  0
ARC
  5
547
330
1F
100
AcDbEntity
  8
Linien
100
AcDbCircle
 10
215.9234611411191
 20
161.3439885644444
 30
0.0
 40
4.0
100
AcDbArc
 50
282.0
 51
0.0
  0
ARC
  5
54A
330
1F
100
AcDbEntity
  8
Linien
100
AcDbCircle
 10
217.9234611411192
 20
165.5445300236914
 30
0.0
 40
2.0
100
AcDbArc
 50
211.3669777746338
 51
0.0
  0
LINE
  5
54B
330
1F
100
AcDbEntity
  8
Linien
100
AcDbLine
 10
211.9234611411191
 20
171.5445300236914
 30
0.0
 11
216.2157592659132
 21
164.5034948151522
 31
0.0
  0
LINE
  5
550
330
1F
100
AcDbEntity
  8
Unsichtbare
 48
0.2
100
AcDbLine
 10
255.4373065999723
 20
151.5445300236914
 30
0.0
 11
238.4234611411191
 21
154.5445300236914
 31
0.0
  0
LINE
  5
551
330
1F
100
AcDbEntity
  8
Linien
100
AcDbLine
 10
261.6734611411191
 20
154.5445300236914
 30
0.0
 11
248.0918143778481
 21
157.4313981615091
 31
0.0
  0
LINE
  5
552
330
1F
100
AcDbEntity
  8
Linien
100
AcDbLine
 10
261.6734611411191
 20
154.5445300236914
 30
0.0
 11
232.4234611411192
 21
154.5445300236914
 31
0.0
  0
LINE
  5
553
330
1F
100
AcDbEntity
  8
Linien
100
AcDbLine
 10
261.6734611411191
 20
151.5445300236914
 30
0.0
 11
232.4234611411192
 21
151.5445300236914
 31
0.0
  0
LINE
  5
554
330
1F
100
AcDbEntity
  8
Linien
100
AcDbLine
 10
252.9234611411191
 20
171.5445300236914
 30
0.0
 11
261.6734611411191
 21
168.5445300236914
 31
0.0
  0
LINE
  5
555
330
1F
100
AcDbEntity
  8
Linien
100
AcDbLine
 10
261.6734611411191
 20
168.5445300236914
 30
0.0
 11
261.6734611411191
 21
151.5445300236914
 31
0.0
  0
ARC
  5
557
330
1F
100
AcDbEntity
  8
Linien
100
AcDbCircle
 10
248.9234611411191
 20
161.3439885644444
 30
0.0
 40
4.0
100
AcDbArc
 50
180.0
 51
258.0
  0
ARC
  5
558
330
1F
100
AcDbEntity
  8
Linien
100
AcDbCircle
 10
246.9234611411191
 20
165.5445300236914
 30
0.0
 40
2.0
100
AcDbArc
 50
180.0
 51
328.6330222253663
  0
LINE
  5
559
330
1F
100
AcDbEntity
  8
Linien
100
AcDbLine
 10
252.9234611411191
 20
171.5445300236914
 30
0.0
 11
248.631163016325
 21
164.5034948151522
 31
0.0
  0
LINE
  5
55A
330
1F
100
AcDbEntity
  8
Linien
100
AcDbLine
 10
244.9234611411191
 20
168.5445300236914
 30
0.0
 11
244.9234611411191
 21
161.3439885644444
 31
0.0
  0
LINE
  5
55B
330
1F
100
AcDbEntity
  8
Unsichtbare
 48
0.2
100
AcDbLine
 10
238.4234611411192
 20
168.5445300236914
 30
0.0
 11
238.4234611411191
 21
154.5445300236914
 31
0.0
  0
DIMENSION
  5
55D
330
1F
100
AcDbEntity
  8
BEMAßUNG
100
AcDbDimension
  2
*D11
 10
217.9234611411192
 20
165.5445300236916
 30
0.0
 11
214.7182238613947
 21
176.9517526762593
 31
0.0
 70
   164
 71
     5
 42
2.000000000000213
  3
ISO-25
100
AcDbRadialDimension
 15
218.4644761276555
 25
163.6190942848668
 35
0.0
 40
0.0
1001
ACAD
1000
DSTYLE
1002
{
1070
   279
1070
     1
1070
   288
1070
     1
1002
}
  0
DIMENSION
  5
56F
330
1F
100
AcDbEntity
  8
BEMAßUNG
100
AcDbDimension
  2
*D12
 10
215.9234611411195
 20
161.3439885644442
 30
0.0
 11
210.7214218663033
 21
164.6757404701415
 31
0.0
 70
   164
 71
     5
 42
3.999999999999616
  3
ISO-25
100
AcDbRadialDimension
 15
219.2918272350947
 25
159.1866499593673
 35
0.0
 40
0.0
1001
ACAD
1000
DSTYLE
1002
{
1070
   279
1070
     1
1070
   288
1070
     1
1002
}
  0
DIMENSION
  5
578
330
1F
100
AcDbEntity
  8
BEMAßUNG
100
AcDbDimension
  2
*D13
 10
216.7551079043902
 20
157.4313981615091
 30
0.0
 11
191.2618337257308
 21
161.5514510171023
 31
0.0
 70
   162
 71
     5
 42
0.2094395102393217
  3
ISO-25
100
AcDb2LineAngularDimension
 13
203.1734611411191
 23
154.5445300236914
 33
0.0
 14
232.4234611411191
 24
154.5445300236914
 34
0.0
 15
203.1734611411191
 25
154.5445300236914
 35
0.0
 16
189.4882642097821
 26
152.6212010238947
 36
0.0
  0
DIMENSION
  5
59A
330
1F
100
AcDbEntity
  8
BEMAßUNG
100
AcDbDimension
  2
*D14
 10
232.4234611411192
 20
151.5445300236914
 30
0.0
 11
270.5816697659774
 21
141.4457998867209
 31
0.0
 70
    34
 71
     5
 42
0.1745329251994327
  3
ISO-25
100
AcDb2LineAngularDimension
 13
255.4373065999723
 23
151.5445300236914
 33
0.0
 14
238.4234611411191
 24
154.5445300236914
 34
0.0
 15
261.6734611411191
 25
151.5445300236914
 35
0.0
 16
275.246183040687
 26
150.3907943539873
 36
0.0
  0
DIMENSION
  5
5BC
330
1F
100
AcDbEntity
  8
BEMAßUNG
100
AcDbDimension
  2
*D15
 10
269.0835348132774
 20
151.5445300236914
 30
0.0
 11
267.2085348132773
 21
153.0445300236914
 31
0.0
 70
    32
 71
     5
 42
3.0
  3
ISO-25
100
AcDbAlignedDimension
 13
261.6734611411191
 23
154.5445300236914
 33
0.0
 14
261.6734611411191
 24
151.5445300236914
 34
0.0
 50
90.0
100
AcDbRotatedDimension
  0
LINE
  5
5DC
102
{ACAD_REACTORS
330
6C9
102
}
330
1F
100
AcDbEntity
  8
Linien
 48
0.2
100
AcDbLine
 10
308.9289969307721
 20
151.5445300236914
 30
0.0
 11
325.9428423896252
 21
154.5445300236914
 31
0.0
  0
LINE
  5
5DF
102
{ACAD_REACTORS
330
6C9
102
}
330
1F
100
AcDbEntity
  8
Linien
100
AcDbLine
 10
302.6928423896252
 20
151.5445300236914
 30
0.0
 11
331.9428423896252
 21
151.5445300236914
 31
0.0
  0
LINE
  5
5E0
102
{ACAD_REACTORS
330
6C9
102
}
330
1F
100
AcDbEntity
  8
Linien
100
AcDbLine
 10
311.4428423896252
 20
171.5445300236914
 30
0.0
 11
302.6928423896252
 21
168.5445300236914
 31
0.0
  0
LINE
  5
5E1
102
{ACAD_REACTORS
330
6C9
102
}
330
1F
100
AcDbEntity
  8
Linien
100
AcDbLine
 10
302.6928423896252
 20
168.5445300236914
 30
0.0
 11
302.6928423896252
 21
151.5445300236914
 31
0.0
  0
LINE
  5
5E3
102
{ACAD_REACTORS
330
6C9
102
}
330
1F
100
AcDbEntity
  8
Linien
100
AcDbLine
 10
361.1928423896252
 20
151.5445300236914
 30
0.0
 11
331.9428423896252
 21
151.5445300236914
 31
0.0
  0
LINE
  5
5E5
102
{ACAD_REACTORS
330
6C9
102
}
330
1F
100
AcDbEntity
  8
Linien
 48
0.2
100
AcDbLine
 10
354.9566878484783
 20
151.5445300236914
 30
0.0
 11
337.9428423896252
 21
154.5445300236914
 31
0.0
  0
ARC
  5
5E9
102
{ACAD_REACTORS
330
6C9
102
}
330
1F
100
AcDbEntity
  8
Linien
100
AcDbCircle
 10
317.4428423896252
 20
165.5445300236914
 30
0.0
 40
2.0
100
AcDbArc
 50
211.3669777746338
 51
0.0
  0
LINE
  5
5EA
102
{ACAD_REACTORS
330
6C9
102
}
330
1F
100
AcDbEntity
  8
Linien
100
AcDbLine
 10
311.4428423896252
 20
171.5445300236914
 30
0.0
 11
315.7351405144193
 21
164.5034948151522
 31
0.0
  0
LINE
  5
5EB
102
{ACAD_REACTORS
330
6C9
102
}
330
1F
100
AcDbEntity
  8
Linien
100
AcDbLine
 10
319.4428423896252
 20
168.5445300236914
 30
0.0
 11
319.4428423896252
 21
165.5445300236914
 31
0.0
  0
LINE
  5
5EC
102
{ACAD_REACTORS
330
6C9
102
}
330
1F
100
AcDbEntity
  8
Linien
 48
0.2
100
AcDbLine
 10
337.9428423896252
 20
168.5445300236914
 30
0.0
 11
337.9428423896252
 21
154.5445300236914
 31
0.0
  0
LINE
  5
5ED
102
{ACAD_REACTORS
330
6C9
102
}
330
1F
100
AcDbEntity
  8
Linien
 48
0.2
100
AcDbLine
 10
325.9428423896252
 20
168.5445300236914
 30
0.0
 11
325.9428423896252
 21
154.5445300236914
 31
0.0
  0
LINE
  5
5EE
102
{ACAD_REACTORS
330
6C9
102
}
330
1F
100
AcDbEntity
  8
Linien
100
AcDbLine
 10
352.4428423896252
 20
171.5445300236914
 30
0.0
 11
361.1928423896252
 21
168.5445300236914
 31
0.0
  0
LINE
  5
5F1
102
{ACAD_REACTORS
330
6C9
102
}
330
1F
100
AcDbEntity
  8
Linien
100
AcDbLine
 10
352.4428423896252
 20
171.5445300236914
 30
0.0
 11
348.1505442648311
 21
164.5034948151522
 31
0.0
  0
LINE
  5
5F2
102
{ACAD_REACTORS
330
6C9
102
}
330
1F
100
AcDbEntity
  8
Linien
100
AcDbLine
 10
344.4428423896251
 20
168.5445300236914
 30
0.0
 11
344.4428423896252
 21
165.5445300236914
 31
0.0
  0
ARC
  5
5F3
102
{ACAD_REACTORS
330
6C9
102
}
330
1F
100
AcDbEntity
  8
Linien
100
AcDbCircle
 10
346.4428423896252
 20
165.5445300236914
 30
0.0
 40
2.0
100
AcDbArc
 50
180.0
 51
328.6330222253663
  0
LINE
  5
5F4
102
{ACAD_REACTORS
330
6C9
102
}
330
1F
100
AcDbEntity
  8
Linien
100
AcDbLine
 10
361.1928423896252
 20
168.5445300236914
 30
0.0
 11
361.1928423896252
 21
151.5445300236914
 31
0.0
  0
LINE
  5
60F
330
1F
100
AcDbEntity
  8
ACHSEN
 48
0.2
100
AcDbLine
 10
331.9428423896252
 20
174.4138224528386
 30
0.0
 11
331.9428423896252
 21
147.3954558762421
 31
0.0
  0
LINE
  5
610
330
1F
100
AcDbEntity
  8
Linien
100
AcDbLine
 10
325.9428423896252
 20
154.5445300236914
 30
0.0
 11
337.9428423896252
 21
154.5445300236914
 31
0.0
  0
LINE
  5
611
330
1F
100
AcDbEntity
  8
Linien
100
AcDbLine
 10
219.9234611411191
 20
168.5445300236914
 30
0.0
 11
244.9234611411191
 21
168.5445300236914
 31
0.0
  0
LINE
  5
612
102
{ACAD_REACTORS
330
6C9
102
}
330
1F
100
AcDbEntity
  8
Linien
100
AcDbLine
 10
319.4428423896251
 20
168.5445300236914
 30
0.0
 11
331.9428423896252
 21
168.5445300236914
 31
0.0
  0
LINE
  5
613
102
{ACAD_REACTORS
330
6C9
102
}
330
1F
100
AcDbEntity
  8
Linien
100
AcDbLine
 10
344.4428423896251
 20
168.5445300236914
 30
0.0
 11
331.9428423896252
 21
168.5445300236914
 31
0.0
  0
DIMENSION
  5
631
330
1F
100
AcDbEntity
  8
BEMAßUNG
100
AcDbDimension
  2
*D16
 10
298.3079941165399
 20
151.5445300236914
 30
0.0
 11
296.4329941165398
 21
157.5445300236914
 31
0.0
 70
    32
 71
     5
 42
12.0
  3
ISO-25
100
AcDbAlignedDimension
 13
317.4428423896252
 23
163.5445300236914
 33
0.0
 14
302.6928423896252
 24
151.5445300236914
 34
0.0
 50
90.0
100
AcDbRotatedDimension
  0
DIMENSION
  5
63E
330
1F
100
AcDbEntity
  8
BEMAßUNG
100
AcDbDimension
  2
*D17
 10
293.2250051912939
 20
151.5445300236914
 30
0.0
 11
291.3500051912938
 21
160.0445300236915
 31
0.0
 70
    32
 71
     5
 42
16.99999999999997
  3
ISO-25
100
AcDbAlignedDimension
 13
319.4428423896251
 23
168.5445300236914
 33
0.0
 14
302.6928423896252
 24
151.5445300236914
 34
0.0
 50
90.0
100
AcDbRotatedDimension
  0
DIMENSION
  5
64B
330
1F
100
AcDbEntity
  8
BEMAßUNG
100
AcDbDimension
  2
*D18
 10
288.4624321053615
 20
151.5445300236914
 30
0.0
 11
286.5874321053615
 21
161.5445300236914
 31
0.0
 70
    32
 71
     5
 42
20.0
  3
ISO-25
100
AcDbAlignedDimension
 13
311.4428423896252
 23
171.5445300236914
 33
0.0
 14
302.6928423896252
 24
151.5445300236914
 34
0.0
 50
90.0
100
AcDbRotatedDimension
  0
DIMENSION
  5
658
330
1F
100
AcDbEntity
  8
BEMAßUNG
100
AcDbDimension
  2
*D19
 10
369.4841571639993
 20
151.5445300236914
 30
0.0
 11
367.6091571639993
 21
153.0445300236915
 31
0.0
 70
    32
 71
     5
 42
3.0
  3
ISO-25
100
AcDbAlignedDimension
 13
337.9428423896252
 23
154.5445300236914
 33
0.0
 14
361.1928423896252
 24
151.5445300236914
 34
0.0
 50
90.0
100
AcDbRotatedDimension
  0
DIMENSION
  5
667
330
1F
100
AcDbEntity
  8
BEMAßUNG
100
AcDbDimension
  2
*D20
 10
337.9428423896252
 20
142.4547898484021
 30
0.0
 11
331.9428423896252
 21
144.3297898484021
 31
0.0
 70
    32
  1
%%c<>
 71
     5
 42
12.0
  3
ISO-25
100
AcDbAlignedDimension
 13
325.9428423896252
 23
154.5445300236914
 33
0.0
 14
337.9428423896252
 24
154.5445300236914
 34
0.0
100
AcDbRotatedDimension
  0
DIMENSION
  5
674
330
1F
100
AcDbEntity
  8
BEMAßUNG
100
AcDbDimension
  2
*D21
 10
361.1928423896252
 20
136.0411307879447
 30
0.0
 11
331.9428423896252
 21
138.124464121278
 31
0.0
 70
    32
  1
%%c<>
 71
     5
 42
58.5
  3
ISO-25
100
AcDbAlignedDimension
 13
302.6928423896252
 23
151.5445300236914
 33
0.0
 14
361.1928423896252
 24
151.5445300236914
 34
0.0
100
AcDbRotatedDimension
  0
DIMENSION
  5
681
330
1F
100
AcDbEntity
  8
BEMAßUNG
100
AcDbDimension
  2
*D22
 10
337.9428423896252
 20
154.5445300236914
 30
0.0
 11
372.9444934805568
 21
140.8564352202668
 31
0.0
 70
    34
 71
     5
 42
0.1745329251994319
  3
ISO-25
100
AcDb2LineAngularDimension
 13
361.1928423896252
 23
151.5445300236914
 33
0.0
 14
331.9428423896252
 24
151.5445300236914
 34
0.0
 15
354.9566878484783
 25
151.5445300236914
 35
0.0
 16
377.5127663269938
 26
150.2307880561854
 36
0.0
  0
DIMENSION
  5
694
330
1F
100
AcDbEntity
  8
BEMAßUNG
100
AcDbDimension
  2
*D23
 10
344.4428423896251
 20
175.6609931440007
 30
0.0
 11
331.9428423896252
 21
177.5359931440007
 31
0.0
 70
    32
  1
%%c<>
 71
     5
 42
24.99999999999995
  3
ISO-25
100
AcDbAlignedDimension
 13
319.4428423896252
 23
168.5445300236914
 33
0.0
 14
344.4428423896251
 24
168.5445300236914
 34
0.0
100
AcDbRotatedDimension
  0
DIMENSION
  5
6A1
330
1F
100
AcDbEntity
  8
BEMAßUNG
100
AcDbDimension
  2
*D24
 10
352.4428423896252
 20
180.2126224552014
 30
0.0
 11
331.9428423896252
 21
182.0876224552014
 31
0.0
 70
    32
  1
%%c<>
 71
     5
 42
41.0
  3
ISO-25
100
AcDbAlignedDimension
 13
311.4428423896252
 23
171.5445300236914
 33
0.0
 14
352.4428423896252
 24
171.5445300236914
 34
0.0
100
AcDbRotatedDimension
  0
HATCH
  5
6C9
330
1F
100
AcDbEntity
  8
Linien
100
AcDbHatch
 10
0.0
 20
0.0
 30
0.0
210
0.0
220
0.0
230
1.0
  2
ANSI31
 70
     0
 71
     1
 91
        2
 92
        7
 72
     1
 73
     1
 93
        9
 10
311.4428423896252
 20
171.5445300236914
 42
0.0
 10
302.6928423896252
 20
168.5445300236914
 42
0.0
 10
302.6928423896251
 20
151.5445300236914
 42
0.0
 10
308.928996930772
 20
151.5445300236914
 42
0.0
 10
325.9428423896252
 20
154.5445300236914
 42
0.0
 10
325.9428423896252
 20
168.5445300236914
 42
0.0
 10
319.4428423896252
 20
168.5445300236914
 42
0.0
 10
319.4428423896252
 20
165.5445300236914
 42
-0.7578936039421693
 10
315.7351405144193
 20
164.5034948151522
 42
0.0
 97
        9
330
5E0
330
5E1
330
5DF
330
5DC
330
5ED
330
612
330
5EB
330
5E9
330
5EA
 92
        7
 72
     1
 73
     1
 93
        9
 10
344.4428423896252
 20
165.5445300236914
 42
0.0
 10
344.4428423896251
 20
168.5445300236914
 42
0.0
 10
337.9428423896251
 20
168.5445300236914
 42
0.0
 10
337.9428423896253
 20
154.5445300236914
 42
0.0
 10
354.9566878484782
 20
151.5445300236914
 42
0.0
 10
361.1928423896252
 20
151.5445300236914
 42
0.0
 10
361.1928423896252
 20
168.5445300236914
 42
0.0
 10
352.4428423896252
 20
171.5445300236915
 42
0.0
 10
348.1505442648311
 20
164.5034948151522
 42
-0.7578936039421633
 97
        9
330
5EE
330
5F1
330
5F3
330
5F2
330
613
330
5EC
330
5E5
330
5E3
330
5F4
 75
     0
 76
     1
 52
0.0
 41
1.0
 77
     0
 78
     1
 53
45.0
 43
-23.63977864961714
 44
0.0
 45
-2.245064030267287
 46
2.245064030267288
 79
     0
 47
0.1034461159842646
 98
        2
 10
311.7120706596366
 20
165.0060432857225
 10
344.325345192501
 20
159.7302912203096
  0
LEADER
  5
725
330
1F
100
AcDbEntity
  8
BEMAßUNG
100
AcDbLeader
  3
ISO-25
 73
     0
 74
     0
 75
     1
 40
6.666666666666666
 41
19.16666666666667
 76
     4
 10
183.6823762469223
 20
92.35577634602734
 30
0.0
 10
176.6931746968918
 20
92.35577634602734
 30
0.0
 10
176.7570424807735
 20
76.19184694520891
 30
0.0
 10
179.2570424807736
 20
76.19184694520891
 30
0.0
340
726
1001
ACAD
1000
DSTYLE
1002
{
1070
   147
1040
0.625
1070
    77
1070
     0
1002
}
  0
MTEXT
  5
726
102
{ACAD_REACTORS
330
725
102
}
330
1F
100
AcDbEntity
  8
BEMAßUNG
100
AcDbMText
 10
179.8820424807735
 20
76.19184694520891
 30
0.0
 40
2.5
 41
19.7242
 71
     4
 72
     1
  1
Tangente zu %%c25
 73
     1
 44
1.0
1001
ACAD
1000
MTEXTBEGIN
1070
    73
1070
     1
1070
    44
1040
1.0
1070
    74
1070
     0
1000
MTEXTEND
  0
LEADER
  5
74B
330
1F
100
AcDbEntity
  8
BEMAßUNG
100
AcDbLeader
  3
ISO-25
 73
     0
 40
7.5
 41
40.83333333333332
 76
     3
 10
325.9428423896252
 20
142.4547898484021
 30
0.0
 10
310.2116562284435
 20
123.4353052267523
 30
0.0
 10
317.0151148965563
 20
123.4353052267523
 30
0.0
340
74C
213
0.0
223
-1.25
233
0.0
1001
ACAD
1000
DSTYLE
1002
{
1070
   147
1040
0.625
1070
    77
1070
     0
1002
}
  0
MTEXT
  5
74C
102
{ACAD_REACTORS
330
74B
102
}
330
1F
100
AcDbEntity
  8
BEMAßUNG
100
AcDbMText
 10
317.6401148965563
 20
124.6853052267523
 30
0.0
 40
2.5
 41
62.4204
 71
     1
 72
     1
  1
%%c12 auf Pumpenwelle anpassen!
 73
     1
 44
1.0
1001
ACAD
1000
MTEXTBEGIN
1070
    73
1070
     1
1070
    44
1040
1.0
1070
    74
1070
     0
1000
MTEXTEND
  0
MTEXT
  5
751
330
1F
100
AcDbEntity
  8
BEMAßUNG
100
AcDbMText
 10
310.2972374314604
 20
55.88667193016249
 30
0.0
 40
2.5
 41
75.729
 71
     1
 72
     5
  1
{\C7;Wasserpumpemrad MG-XPAG-Motor\Pjm 05.98}
 73
     1
 44
1.0
1001
ACAD
1000
MTEXTBEGIN
1070
    73
1070
     1
1070
    44
1040
1.0
1070
    74
1070
     0
1000
MTEXTEND
  0
VIEWPORT
  5
405
102
{ACAD_XDICTIONARY
360
9AD
102
}
330
1B
100
AcDbEntity
 67
     1
  8
0
100
AcDbViewport
 10
144.7461451908465
 20
99.95958042144776
 30
0.0
 40
347.2074642217942
 41
222.1789856212454
 68
     1
 69
     1
 12
144.7461451908465
 22
99.95958042144776
 13
0.0
 23
0.0
 14
10.0
 24
10.0
 15
10.0
 25
10.0
 16
0.0
 26
0.0
 36
1.0
 17
0.0
 27
0.0
 37
0.0
 42
50.0
 43
0.0
 44
0.0
 45
222.1789856212454
 50
0.0
 51
0.0
 72
   100
 90
    32800
  1

281
     0
 71
     1
 74
     0
110
0.0
120
0.0
130
0.0
111
1.0
121
0.0
131
0.0
112
0.0
122
1.0
132
0.0
 79
     0
146
0.0
  0
VIEWPORT
  5
407
102
{ACAD_XDICTIONARY
360
9AF
102
}
330
1B
100
AcDbEntity
 67
     1
  8
DEFPOINTS
100
AcDbViewport
 10
140.8512498562136
 20
92.15929003756949
 30
0.0
 40
280.8701783625977
 41
186.0777412406788
 68
     2
 69
     2
 12
279.4490874556194
 22
114.4666805982309
 13
0.0
 23
0.0
 14
10.0
 24
10.0
 15
10.0
 25
10.0
 16
0.0
 26
0.0
 36
1.0
 17
0.0
 27
0.0
 37
0.0
 42
50.0
 43
0.0
 44
0.0
 45
143.5900662858266
 50
0.0
 51
0.0
 72
   100
 90
    32864
  1

281
     0
 71
     1
 74
     0
110
0.0
120
0.0
130
0.0
111
1.0
121
0.0
131
0.0
112
0.0
122
1.0
132
0.0
 79
     0
146
0.0
1001
GENIUS_GENOBJ-N-SDF_13
1002
{
1000
OWNER
1000
GEN
1002
}
1001
GENIUS_GENODEF_13
1002
{
1000
HIER
1070
     0
1002
}
1002
{
1000
MANEDIT
1070
     0
1002
}
1002
{
1000
NOSEL
1070
     0
1002
}
1002
{
1000
BEHIND
1070
     0
1002
}
1002
{
1000
OTHER
1070
     0
1002
}
1002
{
1000
REACTOR
1002
}
1001
GENIUS_GENSCREG_15
1000
PF
1040
0.0
1000
DF
1040
0.0
1000
MIN
1011
0.4161606749147495
1021
-0.8795805827699041
1031
0.0
1000
MAX
1011
281.2863390375124
1021
185.1981606579089
1031
0.0
1000
FLAGS
1070
     2
  0
ENDSEC
  0
SECTION
  2
OBJECTS
  0
DICTIONARY
  5
C
330
0
100
AcDbDictionary
281
     1
  3
ACAD_COLOR
350
76B
  3
ACAD_GROUP
350
D
  3
ACAD_LAYOUT
350
1A
  3
ACAD_MATERIAL
350
76A
  3
ACAD_MLINESTYLE
350
17
  3
ACAD_PLOTSETTINGS
350
19
  3
ACAD_PLOTSTYLENAME
350
E
  3
AcAsAppObject
350
7B5
  3
ACASGREF_MASTER
350
7FD
  3
ACDBHEADERROUNDTRIPXREC
350
9A4
  3
AcDbVariableDictionary
350
41E
  3
AcmDictionary
350
831
  3
AD_GREF_MODULE
350
7FE
  3
AD_MAPI_MODULE
350
817
  3
AMG
350
770
  3
AMGSNAPSETTINGS
350
875
  3
DWGPROPS
350
9A3
  3
MAPISURF_MODULE
350
7FF
  0
DICTIONARY
  5
87D
330
1F
100
AcDbDictionary
280
     1
281
     1
  3
ACAD_INDEX
360
87E
  0
DICTIONARY
  5
9AD
330
405
100
AcDbDictionary
280
     1
281
     1
  3
ACAD_XREC_ROUNDTRIP
360
9AE
  0
DICTIONARY
  5
9AF
330
407
100
AcDbDictionary
280
     1
281
     1
  3
ACAD_XREC_ROUNDTRIP
360
9B0
  0
DICTIONARY
  5
76B
102
{ACAD_REACTORS
330
C
102
}
330
C
100
AcDbDictionary
281
     1
  0
DICTIONARY
  5
D
102
{ACAD_REACTORS
330
C
102
}
330
C
100
AcDbDictionary
281
     1
  0
DICTIONARY
  5
1A
102
{ACAD_REACTORS
330
C
102
}
330
C
100
AcDbDictionary
281
     1
  3
Layout1
350
1E
  3
Layout2
350
26
  3
Model
350
22
  0
DICTIONARY
  5
76A
102
{ACAD_REACTORS
330
C
102
}
330
C
100
AcDbDictionary
281
     1
  0
DICTIONARY
  5
17
102
{ACAD_REACTORS
330
C
102
}
330
C
100
AcDbDictionary
281
     1
  3
Standard
350
18
  0
DICTIONARY
  5
19
102
{ACAD_REACTORS
330
C
102
}
330
C
100
AcDbDictionary
281
     1
  0
ACDBDICTIONARYWDFLT
  5
E
102
{ACAD_REACTORS
330
C
102
}
330
C
100
AcDbDictionary
281
     1
  3
Normal
350
F
100
AcDbDictionaryWithDefault
340
F
  0
ACAD_PROXY_OBJECT
  5
7B5
102
{ACAD_REACTORS
330
C
102
}
330
C
100
AcDbProxyObject
 90
      499
 91
      529
 95
   131097
 70
     0
 93
       10
310
4040
 94
        0
1001
ACAD
1000
AcRTDxfName
1000
ASAPP
  0
ACAD_PROXY_OBJECT
  5
7FD
102
{ACAD_REACTORS
330
C
102
}
330
C
100
AcDbProxyObject
 90
      499
 91
      535
 95
   131097
 70
     0
 93
       34
310
0100004040
 94
        0
1001
ACAD
1000
AcRTDxfName
1000
ACASGREFMASTER
  0
DICTIONARY
  5
9A4
102
{ACAD_REACTORS
330
C
102
}
330
C
100
AcDbDictionary
281
     1
  3
COLORDICT
350
9A6
  3
MATERIALDICT
350
9A5
  0
DICTIONARY
  5
41E
102
{ACAD_REACTORS
330
C
102
}
330
C
100
AcDbDictionary
281
     1
  3
DIMASSOC
350
9A1
  3
INDEXCTL
350
9A0
  3
PROJECTNAME
350
9A2
  3
SORTENTS
350
41F
  0
DICTIONARY
  5
831
102
{ACAD_REACTORS
330
C
102
}
330
C
100
AcDbDictionary
281
     1
  3
AcmStdDictionary
350
83E
  0
ACAD_PROXY_OBJECT
  5
7FE
102
{ACAD_REACTORS
330
C
102
}
330
C
100
AcDbProxyObject
 90
      499
 91
      536
 95
   131097
 70
     0
 93
      114
310
000000438080000000000000000000
 94
        0
1001
ACAD
1000
AcRTDxfName
1000
ACADGREFMODULE
  0
ACAD_PROXY_OBJECT
  5
817
102
{ACAD_REACTORS
330
C
102
}
330
C
100
AcDbProxyObject
 90
      499
 91
      546
 95
   131097
 70
     0
 93
       34
310
05000044C0
 94
        0
1001
ACAD
1000
AcRTDxfName
1000
MAPIADMODULE
  0
DICTIONARY
  5
770
102
{ACAD_REACTORS
330
C
102
}
330
C
100
AcDbDictionary
281
     1
  0
DICTIONARY
  5
875
102
{ACAD_REACTORS
330
C
102
}
330
C
100
AcDbDictionary
281
     1
  0
XRECORD
  5
9A3
102
{ACAD_REACTORS
330
C
102
}
330
C
100
AcDbXrecord
280
     1
  1
DWGPROPS COOKIE
  2

  3

  4

  6

  7

  8
di25263
  9

300
AmdtFileType=84
301
=
302
=
303
=
304
=
305
=
306
=
307
=
308
=
309
=
 40
0.2297033449074074
 41
2453024.765013993
 42
2454656.356677153
  1

 90
        1
  0
ACAD_PROXY_OBJECT
  5
7FF
102
{ACAD_REACTORS
330
C
102
}
330
C
100
AcDbProxyObject
 90
      499
 91
      537
 95
   131097
 70
     0
 93
        8
310
047E
 94
        0
1001
ACAD
1000
AcRTDxfName
1000
AMDTMAPISURFMOUDULE
  0
DICTIONARY
  5
87E
102
{ACAD_REACTORS
330
87D
102
}
330
87D
100
AcDbDictionary
281
     1
  3
*A1
350
87F
  0
XRECORD
  5
9AE
102
{ACAD_REACTORS
330
9AD
102
}
330
9AD
100
AcDbXrecord
280
     1
102
SHADEPLOT
 70
     0
  0
XRECORD
  5
9B0
102
{ACAD_REACTORS
330
9AF
102
}
330
9AF
100
AcDbXrecord
280
     1
102
SHADEPLOT
 70
     0
  0
LAYOUT
  5
1E
102
{ACAD_XDICTIONARY
360
9A7
102
}
102
{ACAD_REACTORS
330
1A
102
}
330
1A
100
AcDbPlotSettings
  1

  2
\\win05\TWVW26
  4
A4
  6

 40
5.027083396911621
 41
5.027085304260253
 42
5.027084350585937
 43
5.027069091796875
 44
209.9733276367187
 45
296.9259948730469
 46
0.0
 47
0.0
 48
0.0
 49
0.0
140
0.0
141
0.0
142
1.0
143
1.0
 70
   688
 72
     1
 73
     1
 74
     5
  7

 75
    16
147
1.0
148
0.0
149
0.0
100
AcDbLayout
  1
Layout1
 70
     1
 71
     1
 10
-5.027069091796875
 20
-5.027083396911621
 11
291.89892578125
 21
204.9462442398071
 12
0.0
 22
0.0
 32
0.0
 14
0.4161606749147495
 24
-0.8795805827699041
 34
0.0
 15
281.2863390375124
 25
185.1981606579089
 35
0.0
146
0.0
 13
0.0
 23
0.0
 33
0.0
 16
1.0
 26
0.0
 36
0.0
 17
0.0
 27
1.0
 37
0.0
 76
     0
330
1B
331
405
  0
LAYOUT
  5
26
102
{ACAD_XDICTIONARY
360
9AB
102
}
102
{ACAD_REACTORS
330
1A
102
}
330
1A
100
AcDbPlotSettings
  1

  2
\\NT15\TWVW09
  4

  6

 40
0.0
 41
0.0
 42
0.0
 43
0.0
 44
0.0
 45
0.0
 46
0.0
 47
0.0
 48
0.0
 49
0.0
140
0.0
141
0.0
142
1.0
143
1.0
 70
   688
 72
     0
 73
     0
 74
     5
  7

 75
    16
147
1.0
148
0.0
149
0.0
100
AcDbLayout
  1
Layout2
 70
     1
 71
     2
 10
0.0
 20
0.0
 11
12.0
 21
9.0
 12
0.0
 22
0.0
 32
0.0
 14
0.0
 24
0.0
 34
0.0
 15
0.0
 25
0.0
 35
0.0
146
0.0
 13
0.0
 23
0.0
 33
0.0
 16
1.0
 26
0.0
 36
0.0
 17
0.0
 27
1.0
 37
0.0
 76
     0
330
23
  0
LAYOUT
  5
22
102
{ACAD_XDICTIONARY
360
9A9
102
}
102
{ACAD_REACTORS
330
1A
102
}
330
1A
100
AcDbPlotSettings
  1

  2
\\NT15\TWVW09
  4

  6

 40
0.0
 41
0.0
 42
0.0
 43
0.0
 44
0.0
 45
0.0
 46
0.0
 47
0.0
 48
0.0
 49
0.0
140
0.0
141
0.0
142
1.0
143
1.0
 70
  1712
 72
     0
 73
     0
 74
     0
  7

 75
     0
147
1.0
148
0.0
149
0.0
100
AcDbLayout
  1
Model
 70
     1
 71
     0
 10
0.0
 20
0.0
 11
12.0
 21
9.0
 12
0.0
 22
0.0
 32
0.0
 14
0.0
 24
0.0
 34
0.0
 15
0.0
 25
0.0
 35
0.0
146
0.0
 13
0.0
 23
0.0
 33
0.0
 16
1.0
 26
0.0
 36
0.0
 17
0.0
 27
1.0
 37
0.0
 76
     0
330
1F
  0
MLINESTYLE
  5
18
102
{ACAD_REACTORS
330
17
102
}
330
17
100
AcDbMlineStyle
  2
STANDARD
 70
     0
  3

 62
   256
 51
90.0
 52
90.0
 71
     2
 49
0.5
 62
   256
  6
BYLAYER
 49
-0.5
 62
   256
  6
BYLAYER
  0
ACDBPLACEHOLDER
  5
F
102
{ACAD_REACTORS
330
E
102
}
330
E
  0
XRECORD
  5
9A6
102
{ACAD_REACTORS
330
9A4
102
}
330
9A4
100
AcDbXrecord
280
     1
340
76B
  0
XRECORD
  5
9A5
102
{ACAD_REACTORS
330
9A4
102
}
330
9A4
100
AcDbXrecord
280
     1
340
76A
  0
DICTIONARYVAR
  5
9A1
102
{ACAD_REACTORS
330
41E
102
}
330
41E
100
DictionaryVariables
280
     0
  1
1
  0
DICTIONARYVAR
  5
9A0
102
{ACAD_REACTORS
330
41E
102
}
330
41E
100
DictionaryVariables
280
     0
  1
1
  0
DICTIONARYVAR
  5
9A2
102
{ACAD_REACTORS
330
41E
102
}
330
41E
100
DictionaryVariables
280
     0
  1

  0
DICTIONARYVAR
  5
41F
102
{ACAD_REACTORS
330
41E
102
}
330
41E
100
DictionaryVariables
280
     0
  1
96
  0
DICTIONARY
  5
83E
102
{ACAD_REACTORS
330
831
102
}
330
831
100
AcDbDictionary
281
     1
  0
LAYER_INDEX
  5
87F
102
{ACAD_REACTORS
330
87E
102
}
330
87E
100
AcDbIndex
 40
2454656.356677153
100
AcDbLayerIndex
  8
0
360
880
 90
        0
  8
ACHSEN
360
881
 90
        3
  8
DEFPOINTS
360
882
 90
        0
  8
BEMAßUNG
360
883
 90
       31
  8
Linien
360
884
 90
       78
  8
Hilfslinien
360
885
 90
        4
  8
Unsichtbare
360
886
 90
        4
  0
DICTIONARY
  5
9A7
330
1E
100
AcDbDictionary
280
     1
281
     1
  3
ACAD_XREC_ROUNDTRIP
360
9A8
  0
DICTIONARY
  5
9AB
330
26
100
AcDbDictionary
280
     1
281
     1
  3
ACAD_XREC_ROUNDTRIP
360
9AC
  0
DICTIONARY
  5
9A9
330
22
100
AcDbDictionary
280
     1
281
     1
  3
ACAD_XREC_ROUNDTRIP
360
9AA
  0
IDBUFFER
  5
880
330
0
100
AcDbIdBuffer
  0
IDBUFFER
  5
881
330
0
100
AcDbIdBuffer
330
415
330
416
330
60F
  0
IDBUFFER
  5
882
330
0
100
AcDbIdBuffer
  0
IDBUFFER
  5
883
330
0
100
AcDbIdBuffer
330
5BC
330
631
330
63E
330
64B
330
658
330
667
330
674
330
681
330
694
330
6A1
330
725
330
726
330
74B
330
74C
330
751
330
419
330
451
330
45F
330
46D
330
47B
330
489
330
497
330
4B7
330
4E7
330
4F4
330
504
330
511
330
55D
330
56F
330
578
330
59A
  0
IDBUFFER
  5
884
330
0
100
AcDbIdBuffer
330
551
330
552
330
553
330
554
330
555
330
557
330
558
330
559
330
55A
330
5DC
330
5DF
330
5E0
330
5E1
330
5E3
330
5E5
330
5E9
330
5EA
330
5EB
330
5EC
330
5ED
330
5EE
330
5F1
330
5F2
330
5F3
330
5F4
330
610
330
611
330
612
330
613
330
6C9
330
417
330
418
330
41A
330
41B
330
41C
330
41D
330
427
330
42B
330
42C
330
42D
330
42E
330
42F
330
430
330
431
330
432
330
433
330
434
330
435
330
436
330
437
330
438
330
439
330
43A
330
43B
330
43C
330
43D
330
43E
330
43F
330
440
330
441
330
442
330
443
330
444
330
445
330
446
330
447
330
448
330
449
330
44A
330
534
330
53B
330
53E
330
53F
330
541
330
545
330
547
330
54A
330
54B
  0
IDBUFFER
  5
885
330
0
100
AcDbIdBuffer
330
44C
330
44D
330
44F
330
450
  0
IDBUFFER
  5
886
330
0
100
AcDbIdBuffer
330
53D
330
540
330
550
330
55B
  0
XRECORD
  5
9A8
102
{ACAD_REACTORS
330
9A7
102
}
330
9A7
100
AcDbXrecord
280
     1
102
SHADEPLOT
 70
     1
102
SHADEPLOTRESLEVEL
 70
     2
102
SHADEPLOTCUSTOMDPI
 70
   300
  0
XRECORD
  5
9AC
102
{ACAD_REACTORS
330
9AB
102
}
330
9AB
100
AcDbXrecord
280
     1
102
SHADEPLOT
 70
     0
102
SHADEPLOTRESLEVEL
 70
     2
102
SHADEPLOTCUSTOMDPI
 70
   300
  0
XRECORD
  5
9AA
102
{ACAD_REACTORS
330
9A9
102
}
330
9A9
100
AcDbXrecord
280
     1
102
SHADEPLOT
 70
     0
102
SHADEPLOTRESLEVEL
 70
     2
102
SHADEPLOTCUSTOMDPI
 70
   300
  0
ENDSEC
  0
EOF
